<?xml version="1.0" standalone="no"?>
<!DOCTYPE svg PUBLIC "-//W3C//DTD SVG 1.1//EN" "http://www.w3.org/Graphics/SVG/1.1/DTD/svg11.dtd" >
<svg xmlns="http://www.w3.org/2000/svg">
<metadata>
<json>
<![CDATA[
{
	"fontFamily": "h5p-core-30",
	"description": "Font generated by IcoMoon.",
	"copyright": "H5P",
	"majorVersion": 1,
	"minorVersion": 9,
	"version": "Version 1.9",
	"fontId": "h5p-core-30",
	"psName": "h5p-core-30",
	"subFamily": "Regular",
	"fullName": "h5p-core-30"
}
]]>
</json>
</metadata>
<defs>
<font id="h5p-core-30" horiz-adv-x="1024">
<font-face units-per-em="1024" ascent="870.4" descent="-153.6" />
<missing-glyph horiz-adv-x="1024" />
<glyph unicode="&#x20;" horiz-adv-x="0" d="" />
<glyph unicode="&#xe565;" glyph-name="arrow-down" data-tags="arrow-down" d="M234.496 448.256h556.032l-278.528-277.504z" />
<glyph unicode="&#xe566;" glyph-name="arrow-left" data-tags="arrow-left" d="M380.928 47.872v523.264l262.144-262.144z" />
<glyph unicode="&#xe58e;" glyph-name="colapse" data-tags="colapse" d="M512 467.712l256-256-60.416-60.416-195.584 195.584-195.584-195.584-60.416 60.416z" />
<glyph unicode="&#xe58f;" glyph-name="expand" data-tags="expand" d="M707.584 467.712l60.416-60.416-256-256-256 256 60.416 60.416 195.584-196.608z" />
<glyph unicode="&#xe600;" glyph-name="move" data-tags="move" d="M387.072 736h70.656v-71.68h-70.656v71.68zM566.272 736h70.656v-71.68h-70.656v71.68zM387.072 579.328h70.656v-70.656h-70.656v70.656zM566.272 579.328h70.656v-70.656h-70.656v70.656zM387.072 422.656h70.656v-70.656h-70.656v70.656zM566.272 422.656h70.656v-70.656h-70.656v70.656zM387.072 267.008h70.656v-71.68h-70.656v71.68zM566.272 267.008h70.656v-71.68h-70.656v71.68zM387.072 110.336h70.656v-70.656h-70.656v70.656zM566.272 110.336h70.656v-70.656h-70.656v70.656zM387.072-46.336h70.656v-70.656h-70.656v70.656zM566.272-46.336h70.656v-70.656h-70.656v70.656z" />
<glyph unicode="&#xe601;" glyph-name="check-mark" data-tags="check-mark" d="M454.656 278.272l-116.736 116.736-84.992-84.992 201.728-201.728 316.416 317.44-83.968 84.992z" />
<glyph unicode="&#xe602;" glyph-name="drag-text" data-tags="drag-text" d="M664.576 272.128c-11.264 15.36-26.624 24.576-47.104 24.576-21.504 0-37.888-13.312-48.128-23.552h-2.048c1.024 10.24 0 23.552 0 30.72v51.2h-50.176v-234.496h40.96l8.192 20.48h3.072c11.264-20.48 26.624-22.528 47.104-22.528 19.456 0 35.84 8.192 48.128 23.552s17.408 36.864 17.408 65.536c0 27.648-6.144 49.152-17.408 64.512zM625.664 169.728c-5.12-9.216-13.312-13.312-22.528-13.312-12.288 0-21.504 4.096-26.624 11.264s-9.216 21.504-9.216 39.936v5.12c0 16.384 4.096 27.648 9.216 34.816s14.336 10.24 25.6 10.24c10.24 0 17.408-4.096 23.552-12.288s8.192-21.504 8.192-37.888c0-16.384-2.048-29.696-8.192-37.888zM793.6 156.416c9.216 0 17.408 1.024 24.576 3.072s13.312 6.144 22.528 11.264v-39.936c-9.216-4.096-14.336-8.192-22.528-9.216-7.168-2.048-17.408-3.072-28.672-3.072-53.248 0-79.872 28.672-79.872 87.040 0 29.696 7.168 51.2 21.504 66.56s35.84 22.528 62.464 22.528c19.456 0 36.864-3.072 53.248-11.264l-14.336-35.84c-7.168 3.072-13.312 5.12-20.48 7.168-6.144 2.048-12.288 3.072-18.432 3.072-24.576 0-35.84-17.408-35.84-52.224-1.024-32.768 11.264-49.152 35.84-49.152zM443.392 281.344c-12.288 10.24-25.6 15.36-48.128 15.36-24.576 0-46.080-5.12-65.536-15.36l15.36-31.744c18.432 8.192 32.768 12.288 47.104 12.288 17.408 0 24.576-8.192 24.576-25.6v-7.168l-27.648-1.024c-25.6-1.024-44.032-6.144-56.32-14.336-12.288-9.216-18.432-22.528-18.432-39.936s4.096-30.72 13.312-40.96c10.24-9.216 22.528-14.336 38.912-14.336 13.312 0 24.576 1.024 32.768 5.12s16.384 8.192 24.576 18.432h1.024l9.216-19.456h22.528v113.664c0 20.48-1.024 35.84-13.312 45.056zM416.768 188.16c0-10.24-2.048-18.432-8.192-24.576s-13.312-10.24-24.576-10.24c-15.36 0-22.528 7.168-22.528 20.48 0 9.216 4.096 15.36 10.24 20.48s15.36 6.144 28.672 7.168h16.384v-13.312zM904.192 392.96c8.192 0 14.336-7.168 14.336-14.336v-291.84c0-7.168-6.144-14.336-14.336-14.336h-621.568c-8.192 0-14.336 7.168-14.336 14.336v291.84c0 7.168 6.144 14.336 14.336 14.336h621.568zM904.192 429.824h-621.568c-28.672 0-51.2-23.552-51.2-51.2v-291.84c0-27.648 22.528-51.2 51.2-51.2h621.568c28.672 0 51.2 23.552 51.2 51.2v291.84c0 27.648-22.528 51.2-51.2 51.2v0zM251.904 169.728h-65.536v32.768h65.536v-32.768zM134.144 169.728h-35.84c-16.384 0-29.696 13.312-29.696 29.696v9.216h32.768v-6.144h32.768v-32.768zM101.376 274.176h-32.768v65.536h32.768v-65.536zM101.376 405.248h-32.768v65.536h32.768v-65.536zM760.832 416.512h-32.768v64.512h32.768v-64.512zM101.376 536.32h-32.768v17.408c0 16.384 13.312 28.672 29.696 28.672h27.648v-32.768h-24.576v-13.312zM728.064 549.632h-24.576v32.768h27.648c16.384 0 29.696-12.288 29.696-28.672v-17.408h-32.768v13.312zM649.216 549.632h-64.512v32.768h64.512v-32.768zM519.168 549.632h-65.536v32.768h65.536v-32.768zM388.096 549.632h-65.536v32.768h65.536v-32.768zM257.024 549.632h-65.536v32.768h65.536v-32.768z" />
<glyph unicode="&#xe603;" glyph-name="mark-the-words" data-tags="mark-the-words" d="M530.432 339.712c-14.336 0-23.552-4.096-29.696-13.312s-10.24-23.552-10.24-44.032v-6.144c0-23.552 3.072-39.936 9.216-50.176 7.168-10.24 17.408-15.36 32.768-15.36 12.288 0 21.504 6.144 28.672 17.408s10.24 26.624 10.24 48.128c0 21.504-4.096 36.864-11.264 48.128-7.168 10.24-16.384 15.36-29.696 15.36zM646.144 528.128h-249.856c-41.984 0-77.824-34.816-77.824-77.824v-269.312c0-43.008 35.84-91.136 77.824-91.136h249.856c43.008 0 76.8 34.816 76.8 77.824v282.624c0 43.008-33.792 77.824-76.8 77.824zM609.28 192.256c-15.36-19.456-35.84-28.672-61.44-28.672-24.576 0-45.056 3.072-59.392 28.672h-4.096l-9.216-25.6h-48.128v296.96h63.488v-65.536c0-9.216-3.072-23.552-4.096-36.864h2.048c14.336 13.312 33.792 28.672 61.44 28.672 25.6 0 45.056-11.264 59.392-30.72 15.36-20.48 22.528-48.128 22.528-82.944 0-35.84-8.192-64.512-22.528-83.968zM874.496 213.76c11.264 0 20.48 1.024 30.72 4.096 9.216 3.072 15.36 8.192 27.648 14.336v-50.176c-12.288-6.144-18.432-10.24-27.648-12.288s-21.504-3.072-35.84-3.072c-66.56 0-100.352 35.84-100.352 109.568 0 35.84 9.216 63.488 27.648 82.944s44.032 28.672 77.824 28.672c24.576 0 46.080-5.12 66.56-14.336l-17.408-45.056c-9.216 3.072-17.408 6.144-25.6 8.192-8.192 3.072-16.384 4.096-23.552 4.096-30.72 0-46.080-21.504-46.080-64.512 0-41.984 15.36-62.464 46.080-62.464zM244.736 384.768c-15.36 12.288-31.744 18.432-60.416 18.432-29.696 0-57.344-6.144-81.92-19.456l19.456-38.912c23.552 10.24 41.984 15.36 58.368 15.36 22.528 0 31.744-11.264 31.744-32.768v-9.216l-34.816-1.024c-31.744-1.024-54.272-7.168-70.656-18.432-15.36-10.24-22.528-27.648-22.528-50.176 0-21.504 5.12-37.888 17.408-50.176 11.264-11.264 27.648-18.432 48.128-18.432 16.384 0 30.72 2.048 40.96 6.144s20.48 12.288 29.696 23.552h2.048l11.264-23.552h27.648v141.312c0 25.6-1.024 44.032-16.384 57.344zM211.968 267.008c0-13.312-2.048-23.552-10.24-31.744-8.192-7.168-17.408-11.264-30.72-11.264-18.432 0-27.648 8.192-27.648 24.576 0 11.264 4.096 19.456 12.288 25.6s19.456 8.192 35.84 9.216l20.48 1.024v-17.408z" />
<glyph unicode="&#xe604;" glyph-name="multiple-choice" data-tags="multiple-choice" d="M284.672 595.712l-128-128c-2.048-3.072-6.144-4.096-10.24-4.096s-7.168 1.024-10.24 4.096l-73.728 73.728c-2.048 3.072-4.096 6.144-4.096 10.24s2.048 7.168 4.096 10.24l20.48 20.48c3.072 2.048 6.144 4.096 10.24 4.096s7.168-2.048 10.24-4.096l43.008-44.032 97.28 97.28c3.072 3.072 7.168 4.096 10.24 4.096s7.168-1.024 10.24-4.096l20.48-20.48c2.048-2.048 4.096-6.144 4.096-9.216s-2.048-8.192-4.096-10.24zM249.856 244.48l-21.504-21.504c-3.072-3.072-7.168-4.096-10.24-4.096-4.096 0-8.192 1.024-11.264 4.096l-46.080 46.080-46.080-46.080c-3.072-3.072-6.144-4.096-10.24-4.096s-8.192 1.024-10.24 4.096l-21.504 21.504c-3.072 3.072-5.12 7.168-5.12 10.24 0 4.096 2.048 8.192 5.12 11.264l46.080 46.080-46.080 46.080c-3.072 2.048-5.12 6.144-5.12 10.24s2.048 8.192 5.12 10.24l21.504 21.504c2.048 3.072 6.144 4.096 10.24 4.096s7.168-1.024 10.24-4.096l46.080-46.080 46.080 46.080c3.072 3.072 7.168 4.096 10.24 4.096 4.096 0 8.192-1.024 11.264-4.096l20.48-21.504c3.072-3.072 5.12-6.144 5.12-10.24s-2.048-8.192-5.12-10.24l-46.080-46.080 46.080-46.080c3.072-3.072 5.12-7.168 5.12-10.24 0-4.096-2.048-8.192-4.096-11.264zM249.856 4.864l-21.504-21.504c-3.072-3.072-7.168-5.12-10.24-5.12-4.096 0-8.192 2.048-11.264 5.12l-46.080 46.080-46.080-46.080c-2.048-3.072-6.144-5.12-10.24-5.12s-8.192 2.048-10.24 5.12l-21.504 21.504c-3.072 3.072-5.12 6.144-5.12 10.24s2.048 8.192 5.12 10.24l46.080 46.080-46.080 46.080c-3.072 3.072-5.12 7.168-5.12 11.264s2.048 7.168 5.12 10.24l21.504 21.504c2.048 3.072 6.144 4.096 10.24 4.096s7.168-1.024 10.24-4.096l46.080-46.080 46.080 46.080c3.072 3.072 7.168 4.096 10.24 4.096 4.096 0 8.192-1.024 11.264-4.096l20.48-21.504c3.072-3.072 5.12-7.168 5.12-10.24 0-4.096-2.048-8.192-5.12-11.264l-46.080-45.056 46.080-46.080c3.072-3.072 5.12-7.168 5.12-11.264s-2.048-7.168-4.096-10.24zM965.632 515.84c0-20.48-16.384-36.864-36.864-36.864h-580.608c-20.48 0-36.864 16.384-36.864 36.864v25.6c0 20.48 16.384 36.864 36.864 36.864h580.608c20.48 0 36.864-16.384 36.864-36.864v-25.6zM965.632 289.536c0-19.456-16.384-35.84-36.864-35.84h-580.608c-20.48 0-36.864 16.384-36.864 35.84v26.624c0 20.48 16.384 36.864 36.864 36.864h580.608c20.48 0 36.864-16.384 36.864-36.864v-26.624zM965.632 64.256c0-20.48-16.384-36.864-36.864-36.864h-580.608c-20.48 0-36.864 16.384-36.864 36.864v25.6c0 20.48 16.384 36.864 36.864 36.864h580.608c20.48 0 36.864-16.384 36.864-36.864v-25.6z" />
<glyph unicode="&#xe859;" glyph-name="icon-warning" data-tags="icon-warning" d="M203.776 94.976l308.224 514.048 308.224-514.048h-616.448zM301.056 149.248h421.888l-210.944 351.232-210.944-351.232zM512 175.872c8.192 0 14.336 3.072 20.48 8.192s7.168 11.264 7.168 19.456-2.048 14.336-7.168 19.456c-6.144 5.12-12.288 7.168-20.48 7.168s-14.336-2.048-19.456-7.168-8.192-12.288-8.192-19.456 2.048-14.336 8.192-19.456c5.12-5.12 11.264-8.192 19.456-8.192zM484.352 257.792h55.296v135.168h-55.296v-135.168z" />
<glyph unicode="&#xe85c;" glyph-name="icon-link" data-tags="icon-link" d="M380.928 42.752c-45.056 0-90.112 17.408-125.952 52.224-68.608 69.632-68.608 183.296 0 252.928l43.008 43.008c9.216 9.216 23.552 9.216 32.768 0s10.24-24.576 0-33.792l-41.984-43.008c-24.576-23.552-38.912-57.344-38.912-92.16s14.336-66.56 38.912-93.184c23.552-26.624 56.32-37.888 92.16-37.888s66.56 14.336 93.184 37.888l43.008 43.008c9.216 9.216 23.552 9.216 32.768 0s9.216-23.552 0-33.792l-43.008-43.008c-35.84-35.84-80.896-52.224-125.952-52.224zM404.48 221.952c-6.144 0-11.264 2.048-16.384 6.144-9.216 10.24-9.216 24.576 0 33.792l217.088 216.064c9.216 10.24 23.552 10.24 32.768 0s9.216-23.552 0-32.768l-216.064-217.088c-5.12-4.096-12.288-6.144-17.408-6.144zM709.632 306.944c-7.168 0-12.288 3.072-16.384 7.168-10.24 9.216-10.24 23.552 0 33.792l41.984 41.984c24.576 24.576 38.912 57.344 38.912 93.184s-14.336 66.56-38.912 93.184c-23.552 25.6-56.32 37.888-92.16 37.888s-66.56-14.336-93.184-37.888l-43.008-43.008c-9.216-9.216-23.552-9.216-32.768 0s-9.216 23.552 0 32.768l43.008 43.008c68.608 69.632 183.296 69.632 251.904 0s68.608-183.296 0-251.904l-43.008-43.008c-4.096-4.096-11.264-7.168-16.384-7.168z" />
<glyph unicode="&#xe85d;" glyph-name="icon-upload" data-tags="icon-upload" d="M495.616 654.080c9.216 9.216 23.552 9.216 32.768 0l158.72-157.696c9.216-10.24 10.24-25.6 0-35.84-9.216-10.24-24.576-10.24-33.792-1.024l-116.736 116.736v-318.464c0-14.336-11.264-25.6-24.576-25.6s-24.576 11.264-24.576 25.6v318.464l-116.736-116.736c-9.216-9.216-24.576-9.216-33.792 1.024s-9.216 25.6 0 35.84l158.72 157.696zM227.328 282.368c13.312 0 24.576-11.264 24.576-24.576v-37.888c0-26.624 0-46.080 1.024-60.416 1.024-13.312 3.072-21.504 6.144-27.648 7.168-12.288 17.408-23.552 30.72-30.72 6.144-3.072 14.336-5.12 28.672-6.144 15.36-1.024 33.792-1.024 60.416-1.024h266.24c26.624 0 45.056 0 60.416 1.024 14.336 1.024 22.528 3.072 28.672 6.144 13.312 7.168 23.552 18.432 30.72 30.72 3.072 6.144 5.12 14.336 6.144 27.648 1.024 14.336 1.024 33.792 1.024 60.416v37.888c0 13.312 11.264 24.576 24.576 24.576s24.576-11.264 24.576-24.576v-38.912c0-25.6 0-46.080-2.048-63.488-1.024-17.408-4.096-32.768-11.264-47.104-12.288-22.528-30.72-40.96-52.224-52.224-14.336-7.168-29.696-10.24-47.104-11.264-16.384-1.024-36.864-1.024-62.464-1.024h-268.288c-25.6 0-46.080 0-62.464 1.024-17.408 1.024-32.768 4.096-47.104 11.264-21.504 11.264-39.936 29.696-52.224 52.224-7.168 14.336-10.24 29.696-11.264 47.104s-1.024 37.888-1.024 63.488v38.912c0 13.312 10.24 24.576 23.552 24.576z" />
<glyph unicode="&#xe85e;" glyph-name="icon-edit" data-tags="icon-edit" d="M772.096 491.264c6.144 1.024 13.312 2.048 20.48 5.12 10.24 5.12 18.432 13.312 23.552 23.552 3.072 7.168 4.096 14.336 5.12 20.48 0 6.144 0 14.336 0 22.528v26.624c0 8.192 0 16.384 0 22.528-1.024 6.144-2.048 13.312-5.12 20.48-5.12 10.24-13.312 18.432-23.552 23.552-7.168 3.072-14.336 4.096-20.48 5.12-6.144 0-14.336 0-22.528 0h-26.624c-8.192 0-16.384 0-22.528 0-6.144-1.024-13.312-2.048-20.48-5.12-10.24-5.12-18.432-13.312-23.552-23.552-3.072-7.168-5.12-14.336-5.12-20.48 0-4.096-1.024-9.216-1.024-14.336h-276.48c0 5.12-1.024 10.24-1.024 14.336 0 6.144-2.048 13.312-5.12 20.48-5.12 10.24-13.312 18.432-23.552 23.552-7.168 3.072-14.336 4.096-20.48 5.12-6.144 0-14.336 0-22.528 0 0 0 0 0 0 0h-25.6c-1.024 0-1.024 0-1.024 0-8.192 0-16.384 0-22.528 0-6.144-1.024-13.312-2.048-20.48-5.12-10.24-5.12-18.432-13.312-23.552-23.552-3.072-7.168-4.096-14.336-5.12-20.48 0-6.144 0-14.336 0-22.528 0 0 0 0 0-1.024v-25.6c0 0 0 0 0 0 0-8.192 0-16.384 0-22.528 1.024-6.144 2.048-13.312 5.12-20.48 5.12-10.24 13.312-18.432 23.552-23.552 7.168-3.072 14.336-4.096 20.48-5.12 4.096 0 9.216 0 14.336 0v-277.504c-5.12 0-10.24-1.024-14.336-1.024-6.144 0-13.312-2.048-20.48-5.12-10.24-5.12-18.432-13.312-23.552-23.552-3.072-7.168-4.096-14.336-5.12-20.48 0-6.144 0-14.336 0-22.528v-26.624c0-8.192 0-16.384 0-22.528 1.024-6.144 2.048-13.312 5.12-20.48 5.12-10.24 13.312-18.432 23.552-23.552 7.168-3.072 14.336-4.096 20.48-5.12 6.144 0 14.336 0 22.528 0h26.624c8.192 0 16.384 0 22.528 0 6.144 1.024 13.312 2.048 20.48 5.12 10.24 5.12 18.432 13.312 23.552 23.552 3.072 7.168 5.12 14.336 5.12 20.48 0 4.096 1.024 9.216 1.024 14.336h277.504c0-5.12 0-10.24 0-14.336 1.024-6.144 2.048-13.312 5.12-20.48 5.12-10.24 13.312-18.432 23.552-23.552 7.168-3.072 14.336-4.096 20.48-5.12 6.144 0 14.336 0 22.528 0h26.624c8.192 0 16.384 0 22.528 0 6.144 1.024 13.312 2.048 20.48 5.12 10.24 5.12 18.432 13.312 23.552 23.552 3.072 7.168 4.096 14.336 5.12 20.48 0 6.144 0 14.336 0 22.528v26.624c0 8.192 0 16.384 0 22.528-1.024 6.144-2.048 13.312-5.12 20.48-5.12 10.24-13.312 18.432-23.552 23.552-7.168 3.072-14.336 5.12-20.48 5.12-4.096 0-9.216 1.024-14.336 1.024v277.504c5.12 0 10.24 0 14.336 0zM256 534.272c-2.048 0-3.072 0-4.096 0 0 0-1.024 0-1.024 0s0 0 0 0c-2.048 1.024-3.072 3.072-5.12 5.12 0 0 0 0 0 0s0 0 0 1.024 0 2.048 0 4.096c-1.024 4.096-1.024 9.216-1.024 18.432v25.6c0 10.24 0 15.36 1.024 19.456 0 2.048 0 3.072 0 4.096 0 0 0 1.024 0 1.024s0 0 0 0c1.024 2.048 3.072 4.096 5.12 5.12 0 0 0 0 0 0s1.024 0 1.024 0 2.048 0 4.096 0c4.096 1.024 10.24 1.024 19.456 1.024h25.6c9.216 0 14.336 0 18.432-1.024 2.048 0 4.096 0 4.096 0 1.024 0 1.024 0 1.024 0s0 0 0 0c2.048-1.024 4.096-3.072 5.12-5.12 0 0 0 0 0 0s0 0 0-1.024 0-2.048 1.024-4.096c0-4.096 0-9.216 0-19.456v-25.6c0-9.216 0-14.336 0-18.432-1.024-2.048-1.024-3.072-1.024-4.096 0 0 0-1.024 0-1.024s0 0 0 0c-1.024-2.048-3.072-4.096-5.12-5.12 0 0 0 0 0 0s0 0-1.024 0c0 0-2.048 0-4.096 0-4.096-1.024-9.216-1.024-18.432-1.024h-25.6c-9.216 0-15.36 0-19.456 1.024zM330.752 115.456c0-9.216 0-15.36-1.024-19.456 0-2.048 0-3.072 0-4.096 0 0 0-1.024 0-1.024s0 0 0 0c-1.024-2.048-3.072-3.072-5.12-5.12 0 0 0 0 0 0s0 0-1.024 0-2.048 0-4.096 0c-4.096-1.024-9.216-1.024-18.432-1.024h-25.6c-9.216 0-15.36 0-19.456 1.024-2.048 0-3.072 0-4.096 0 0 0-1.024 0-1.024 0s0 0 0 0c-2.048 1.024-3.072 3.072-5.12 5.12 0 0 0 0 0 0s0 1.024 0 1.024 0 2.048 0 4.096c-1.024 4.096-1.024 10.24-1.024 19.456v25.6c0 9.216 0 14.336 1.024 18.432 0 2.048 0 4.096 0 4.096 0 1.024 0 1.024 0 1.024s0 0 0 0c1.024 2.048 3.072 4.096 5.12 5.12 0 0 0 0 0 0s1.024 0 1.024 0 2.048 0 4.096 1.024c4.096 0 10.24 0 19.456 0h25.6c9.216 0 14.336 0 18.432 0 2.048-1.024 4.096-1.024 4.096-1.024 1.024 0 1.024 0 1.024 0s0 0 0 0c2.048-1.024 4.096-3.072 5.12-5.12 0 0 0 0 0 0s0 0 0-1.024c0 0 0-2.048 1.024-4.096 0-4.096 0-9.216 0-18.432v-25.6zM656.384 184.064c-3.072-7.168-4.096-14.336-5.12-20.48 0-4.096 0-9.216 0-14.336h-277.504c0 5.12-1.024 10.24-1.024 14.336 0 6.144-2.048 13.312-5.12 20.48-5.12 10.24-13.312 18.432-23.552 23.552-7.168 3.072-14.336 5.12-20.48 5.12-4.096 0-9.216 1.024-14.336 1.024v277.504c5.12 0 10.24 0 14.336 0 6.144 1.024 13.312 2.048 20.48 5.12 10.24 5.12 18.432 13.312 23.552 23.552 3.072 7.168 5.12 14.336 5.12 20.48 0 4.096 1.024 9.216 1.024 14.336h277.504c0-5.12 0-10.24 0-14.336 1.024-6.144 2.048-13.312 5.12-20.48 5.12-10.24 13.312-18.432 23.552-23.552 7.168-3.072 14.336-4.096 20.48-5.12 4.096 0 9.216 0 14.336 0v-277.504c-5.12 0-10.24-1.024-14.336-1.024-6.144 0-13.312-2.048-20.48-5.12-10.24-5.12-18.432-13.312-23.552-23.552zM768 170.752c2.048-1.024 3.072-1.024 4.096-1.024 0 0 1.024 0 1.024 0s0 0 0 0c2.048-1.024 4.096-3.072 5.12-5.12 0 0 0 0 0 0s0 0 0-1.024c0 0 0-2.048 0-4.096 1.024-4.096 1.024-9.216 1.024-18.432v-25.6c0-9.216 0-15.36-1.024-19.456 0-2.048 0-3.072 0-4.096 0 0 0-1.024 0-1.024v0 0c-1.024-2.048-3.072-3.072-5.12-5.12 0 0 0 0 0 0s0 0-1.024 0c0 0-2.048 0-4.096 0-4.096-1.024-9.216-1.024-18.432-1.024h-25.6c-9.216 0-15.36 0-19.456 1.024-2.048 0-3.072 0-4.096 0 0 0-1.024 0-1.024 0s0 0 0 0c-2.048 1.024-3.072 3.072-5.12 5.12 0 0 0 0 0 0s0 1.024 0 1.024 0 2.048 0 4.096c-1.024 4.096-1.024 10.24-1.024 19.456v25.6c0 9.216 0 14.336 1.024 18.432 0 2.048 0 4.096 0 4.096 0 1.024 0 1.024 0 1.024s0 0 0 0c1.024 2.048 3.072 4.096 5.12 5.12 0 0 0 0 0 0s0 0 0 0c1.024 0 1.024 0 1.024 0 1.024 0 2.048 0 4.096 1.024 4.096 0 10.24 0 19.456 0h24.576c10.24 0 15.36 0 19.456 0zM748.544 533.248h-25.6c-9.216 0-14.336 0-18.432 1.024-2.048 0-3.072 0-4.096 0 0 0-1.024 0-1.024 0s0 0 0 0c-2.048 1.024-4.096 3.072-5.12 5.12 0 0 0 0 0 0s0 1.024 0 1.024 0 2.048 0 4.096c-1.024 4.096-1.024 10.24-1.024 19.456v24.576c0 10.24 0 15.36 1.024 19.456 0 2.048 0 3.072 0 4.096 0 0 0 1.024 0 1.024s0 0 0 0c1.024 2.048 3.072 4.096 5.12 5.12 0 0 0 0 0 0s0 0 1.024 0 2.048 0 4.096 0c4.096 1.024 9.216 1.024 18.432 1.024h25.6c10.24 0 15.36 0 19.456-1.024 2.048 0 3.072 0 4.096 0 0 0 1.024 0 1.024 0s0 0 0 0c2.048-1.024 4.096-3.072 5.12-5.12 0 0 0 0 0 0v0c0 0 0 0 0-1.024s0-2.048 0-4.096c1.024-4.096 1.024-9.216 1.024-19.456v-25.6c0-9.216 0-14.336-1.024-18.432 0-2.048 0-3.072 0-4.096 0 0 0-1.024 0-1.024s0 0 0 0c-1.024-2.048-3.072-4.096-5.12-5.12 0 0 0 0 0 0s-1.024 0-1.024 0-2.048 0-4.096 0c-4.096-1.024-9.216-1.024-19.456-1.024z" />
<glyph unicode="&#xe85f;" glyph-name="icon-delete" data-tags="icon-delete" d="M583.68 162.56c20.48 0 34.816 14.336 34.816 34.816v175.104c0 20.48-14.336 34.816-34.816 34.816s-35.84-14.336-35.84-34.816v-175.104c0-20.48 15.36-34.816 35.84-34.816zM788.48 566.016v0h-122.88c0 12.288 0 26.624 0 35.84 0 13.312-3.072 23.552-10.24 35.84-8.192 18.432-23.552 31.744-41.984 38.912-12.288 5.12-22.528 8.192-35.84 10.24-10.24 0-25.6 0-40.96 0h-51.2c-15.36 0-30.72 0-41.984 0-12.288-2.048-25.6-5.12-35.84-10.24-17.408-7.168-33.792-23.552-40.96-38.912-5.12-12.288-8.192-22.528-10.24-35.84 0-9.216 0-21.504 0-35.84h-123.904c-17.408 0-30.72-15.36-30.72-30.72 0-18.432 13.312-31.744 30.72-31.744h30.72v-311.296c0-25.6 0-44.032 3.072-61.44s5.12-33.792 12.288-47.104c10.24-22.528 28.672-40.96 52.224-53.248 15.36-8.192 30.72-10.24 48.128-13.312 16.384 0 36.864 0 62.464 0h139.264c25.6 0 46.080 0 61.44 3.072 18.432 2.048 33.792 5.12 49.152 12.288 22.528 13.312 40.96 30.72 54.272 54.272 7.168 15.36 10.24 30.72 12.288 46.080 3.072 15.36 3.072 36.864 3.072 62.464v308.224h30.72c17.408 0 30.72 13.312 30.72 31.744-2.048 15.36-15.36 30.72-33.792 30.72zM417.792 596.736c0 8.192 3.072 10.24 3.072 13.312 2.048 5.12 7.168 10.24 12.288 12.288 3.072 0 5.12 3.072 13.312 3.072s20.48 0 38.912 0h51.2c18.432 0 28.672 0 38.912 0 7.168 0 10.24-3.072 12.288-3.072 5.12-2.048 10.24-7.168 13.312-12.288 0-3.072 2.048-5.12 2.048-13.312 0-7.168 0-16.384 0-30.72h-185.344c0 14.336 0 23.552 0 30.72v0zM698.368 195.328c0 0 0-44.032 0-57.344s-5.12-20.48-7.168-25.6c-5.12-10.24-15.36-20.48-25.6-25.6-5.12-3.072-13.312-5.12-25.6-5.12-13.312 0-31.744 0-59.392 0h-137.216c-25.6 0-43.008 0-59.392 0-12.288 0-20.48 2.048-25.6 5.12-12.288 5.12-20.48 15.36-25.6 25.6-2.048 5.12-5.12 10.24-5.12 25.6 0 13.312 0 30.72 0 57.344v308.224h370.688v-308.224zM441.344 162.56c21.504 0 35.84 14.336 35.84 34.816v175.104c0 20.48-14.336 34.816-35.84 34.816s-34.816-14.336-34.816-34.816v-175.104c0-20.48 14.336-34.816 34.816-34.816z" />
<glyph unicode="&#xe888;" glyph-name="arrow-up-circle" data-tags="arrow-up-circle" d="M513.024 572.16c-148.48 0-264.192-120.832-260.096-269.312 0-125.952 89.088-232.448 208.896-256v214.016h-92.16c-14.336 0-14.336 9.216-9.216 18.432l139.264 172.032c4.096 9.216 13.312 9.216 22.528 4.096 0 0 5.12-4.096 5.12-4.096l139.264-172.032c9.216-9.216 5.12-18.432-9.216-18.432h-93.184v-214.016c144.384 32.768 232.448 172.032 199.68 316.416-22.528 119.808-130.048 203.776-250.88 208.896z" />
<glyph unicode="&#xe889;" glyph-name="info-circle" data-tags="info-circle" d="M512 570.112c-144.384 0-260.096-116.736-260.096-261.12s115.712-260.096 260.096-260.096 260.096 116.736 260.096 260.096v0c0 140.288-115.712 256-260.096 261.12zM470.016 518.912h88.064v-69.632h-88.064v69.632zM600.064 127.744h-181.248v51.2h51.2v162.816h-51.2v51.2h139.264v-218.112h47.104l-5.12-47.104z" />
<glyph unicode="&#xe88a;" glyph-name="search" data-tags="search" d="M769.024 106.24l-110.592 110.592c71.68 99.328 50.176 243.712-49.152 315.392s-243.712 44.032-315.392-55.296c-72.704-100.352-50.176-243.712 49.152-315.392 77.824-55.296 182.272-55.296 260.096 0l110.592-110.592c6.144-6.144 11.264-6.144 16.384 0 0 0 0 0 0 0l33.792 32.768c11.264 5.12 11.264 16.384 5.12 22.528 0 0 0 0 0 0zM476.16 183.040c-89.088 0-160.768 72.704-160.768 160.768s71.68 160.768 160.768 160.768 160.768-71.68 160.768-160.768-72.704-160.768-160.768-160.768v0z" />
<glyph unicode="&#xe88c;" glyph-name="fullscreen" data-tags="fullscreen" d="M357.376 455.424c5.12 6.144 0 6.144-6.144 6.144l-103.424 11.264c-5.12 6.144-11.264 0-11.264-6.144l11.264-108.544c0-6.144 6.144-6.144 6.144-6.144l103.424 103.424zM282.624 392.96l63.488-63.488c5.12-6.144 11.264-6.144 16.384 0l23.552 22.528c5.12 6.144 5.12 12.288 0 17.408l-63.488 57.344-39.936-33.792zM776.192 352c5.12-5.12 5.12 0 5.12 6.144l12.288 108.544c0 6.144-6.144 12.288-12.288 12.288l-108.544-12.288c-6.144 0-6.144-5.12-6.144-5.12l109.568-109.568zM712.704 426.752l-62.464-62.464c-6.144-6.144-6.144-12.288 0-17.408l22.528-23.552c6.144-5.12 11.264-5.12 17.408 0l62.464 63.488-39.936 39.936zM678.912 146.176c-6.144-6.144 0-6.144 5.12-6.144l109.568-11.264c5.12 0 11.264 5.12 11.264 11.264l-17.408 103.424c0 6.144-6.144 6.144-6.144 6.144l-102.4-103.424zM747.52 214.784l-63.488 63.488c-5.12 5.12-11.264 5.12-17.408 0l-22.528-23.552c-6.144-5.12-6.144-11.264 0-17.408l63.488-62.464 39.936 39.936zM253.952 249.6c-6.144 5.12-6.144 0-6.144-6.144l-11.264-109.568c0-5.12 6.144-11.264 11.264-11.264l109.568 11.264c5.12 0 5.12 6.144 5.12 6.144l-108.544 109.568zM322.56 174.848l63.488 62.464c5.12 6.144 5.12 12.288 0 17.408l-23.552 23.552c-5.12 5.12-11.264 5.12-16.384 0l-63.488-63.488 39.936-39.936zM150.528 558.848v-498.688h722.944v498.688h-722.944zM833.536 100.096h-636.928v412.672h636.928v-412.672z" />
<glyph unicode="&#xe88e;" glyph-name="h5p" data-tags="h5p" d="M891.904 457.472c-22.528 16.384-50.176 27.648-90.112 27.648h-139.264v-66.56h-155.648l-11.264-56.32c11.264 6.144 27.648 11.264 38.912 11.264s22.528 0 33.792 0c32.768 0 66.56-11.264 89.088-33.792s32.768-50.176 32.768-82.944c0-22.528-5.12-45.056-16.384-67.584s-27.648-38.912-50.176-50.176c-5.12-5.12-16.384 0-22.528-11.264h117.76v134.144h66.56c45.056 0 77.824 11.264 100.352 27.648 22.528 22.528 33.792 50.176 33.792 83.968 0 38.912-11.264 66.56-27.648 83.968v0zM796.672 345.856c-11.264-6.144-22.528-11.264-45.056-11.264h-32.768v83.968h38.912c22.528 0 32.768-6.144 44.032-11.264 6.144-6.144 11.264-17.408 11.264-28.672 0-16.384-5.12-27.648-16.384-32.768v0zM523.264 306.944c-16.384 0-33.792-11.264-45.056-28.672l-94.208 17.408 44.032 194.56h-94.208v-150.528h-117.76v150.528h-111.616v-362.496h111.616v134.144h117.76v-134.144h139.264c-16.384 11.264-33.792 11.264-45.056 22.528s-21.504 22.528-27.648 33.792c-5.12 11.264-11.264 22.528-16.384 38.912l94.208 16.384c6.144-16.384 22.528-27.648 45.056-27.648 27.648 0 50.176 22.528 50.176 50.176 0 22.528-22.528 45.056-50.176 45.056v0z" />
<glyph unicode="&#xe88f;" glyph-name="rights-of-use" data-tags="rights-of-use" d="M878.592 296.704c0-5.12 0-5.12 0-5.12-23.552-23.552-47.104-35.84-76.8-41.984-12.288 0-23.552-6.144-35.84-6.144s-17.408 0-29.696 0c0 0-5.12 0-5.12 6.144-65.536 59.392-136.192 118.784-201.728 183.296 0 0-5.12 0-5.12 0-23.552-6.144-48.128-11.264-71.68-17.408s-53.248 0-76.8 11.264c-17.408 12.288-23.552 18.432-28.672 35.84-6.144 6.144 0 23.552 11.264 23.552 40.96 12.288 89.088 29.696 130.048 47.104 12.288 6.144 29.696 6.144 40.96 6.144 6.144 0 12.288-6.144 12.288-6.144 40.96-17.408 82.944-29.696 123.904-47.104 0 0 6.144 0 6.144 0 29.696 6.144 64.512 17.408 94.208 23.552 6.144 0 6.144 0 6.144 0l106.496-212.992zM270.336 302.848c17.408 12.288 34.816 6.144 52.224-11.264 12.288-12.288 12.288-29.696 6.144-48.128 18.432 6.144 35.84-5.12 41.984-17.408 11.264-17.408 5.12-34.816-6.144-47.104 6.144 0 11.264 0 17.408 0 12.288-6.144 23.552-12.288 29.696-29.696s0-29.696-6.144-34.816c-6.144-6.144-11.264-12.288-17.408-18.432s-12.288-11.264-17.408-17.408-35.84-17.408-53.248 0c-29.696 29.696-53.248 64.512-82.944 94.208-17.408 23.552-35.84 41.984-47.104 65.536-6.144 11.264-12.288 17.408-12.288 29.696 0 5.12 0 17.408 6.144 23.552 12.288 11.264 17.408 17.408 29.696 28.672 17.408 18.432 47.104 12.288 64.512-5.12-5.12 0-5.12-6.144-5.12-12.288v0zM417.792 96l29.696-29.696c17.408-17.408 47.104-11.264 58.368 6.144l-5.12 6.144c-24.576 23.552-48.128 47.104-71.68 70.656-5.12 6.144-5.12 6.144-5.12 12.288s5.12 5.12 11.264 11.264c6.144 0 12.288 0 12.288-6.144 11.264-11.264 28.672-28.672 47.104-47.104 11.264-11.264 29.696-29.696 47.104-47.104 6.144-11.264 17.408-11.264 29.696-11.264 11.264 5.12 23.552 11.264 29.696 23.552 0 5.12 0 5.12 0 5.12-41.984 41.984-89.088 82.944-130.048 130.048-6.144 6.144-6.144 6.144-6.144 12.288 0 11.264 11.264 11.264 23.552 6.144 0 0 6.144 0 6.144-6.144 40.96-40.96 88.064-89.088 130.048-130.048 5.12-6.144 5.12-6.144 5.12-6.144 18.432 0 35.84 18.432 35.84 35.84 0 6.144 0 6.144 0 6.144-47.104 47.104-100.352 100.352-147.456 147.456-6.144 6.144-6.144 6.144-6.144 11.264s6.144 12.288 6.144 12.288c6.144 0 11.264 0 11.264-6.144 6.144-6.144 6.144-6.144 12.288-11.264 35.84-35.84 70.656-71.68 106.496-106.496 11.264-12.288 23.552-23.552 29.696-29.696 0 0 5.12-6.144 5.12 0 23.552 6.144 35.84 29.696 29.696 53.248h35.84c0 0 0 0 0 0 0-6.144 0-17.408 0-23.552-6.144-29.696-23.552-47.104-53.248-59.392 0 0-6.144 0-6.144-6.144-11.264-29.696-34.816-53.248-64.512-53.248-6.144 0-6.144 0-6.144-5.12-17.408-35.84-59.392-48.128-89.088-35.84-5.12 0-11.264 6.144-11.264 6.144-6.144-6.144-12.288-12.288-23.552-18.432-29.696-11.264-59.392-5.12-76.8 12.288-12.288 11.264-18.432 17.408-29.696 29.696 17.408 23.552 23.552 29.696 29.696 40.96v0 0zM251.904 610.048c29.696-11.264 65.536-23.552 95.232-29.696 34.816-11.264 64.512-23.552 100.352-29.696 0 0 0 0 5.12 0-17.408-5.12-34.816-11.264-47.104-17.408 0 0-6.144 0-6.144 0-47.104 12.288-94.208 23.552-135.168 41.984-6.144 0-6.144 0-6.144 0l-76.8-183.296c0-12.288 6.144-18.432 12.288-23.552s5.12-6.144 5.12-12.288c-5.12-6.144-11.264-17.408-23.552-23.552-17.408 17.408-29.696 35.84-29.696 64.512l89.088 212.992c-6.144-11.264 6.144 6.144 17.408 0v0z" />
<glyph unicode="&#xe890;" glyph-name="delete-circle" data-tags="delete-circle" d="M512 570.112c-147.456 0-260.096-118.784-260.096-261.12s118.784-260.096 260.096-260.096 260.096 118.784 260.096 260.096-112.64 261.12-260.096 261.12zM653.312 230.144c6.144-5.12 6.144-17.408 0-28.672l-33.792-33.792c-5.12-5.12-17.408-5.12-28.672 0l-78.848 79.872-78.848-79.872c-6.144-5.12-17.408-5.12-28.672 0l-33.792 33.792c-6.144 6.144-6.144 17.408 0 28.672l84.992 78.848-79.872 79.872c-5.12 5.12-5.12 16.384 0 27.648l34.816 34.816c5.12 5.12 16.384 5.12 27.648 0l73.728-84.992 78.848 78.848c6.144 6.144 17.408 6.144 28.672 0l33.792-33.792c6.144-6.144 6.144-17.408 0-28.672l-78.848-73.728 78.848-78.848z" />
<glyph unicode="&#xe891;" glyph-name="window" data-tags="window" d="M186.368 431.872c-5.12-5.12 0-5.12 6.144-5.12l108.544-12.288c5.12 0 11.264 6.144 11.264 12.288l-17.408 102.4c0 5.12-5.12 5.12-5.12 5.12l-103.424-102.4zM254.976 494.336l-62.464 63.488c-6.144 5.12-11.264 5.12-17.408 0l-16.384-23.552c-6.144-5.12-6.144-11.264 0-16.384l62.464-63.488 33.792 39.936zM734.208 529.152c-5.12 5.12-5.12 0-5.12-6.144l-11.264-108.544c0-5.12 5.12-11.264 11.264-11.264l108.544 11.264c5.12 0 5.12 6.144 5.12 6.144l-108.544 108.544zM797.696 454.4l62.464 63.488c5.12 5.12 5.12 11.264 0 16.384l-22.528 23.552c-6.144 5.12-12.288 5.12-17.408 0l-62.464-63.488 39.936-39.936zM831.488 192.256c6.144 6.144 0 6.144-6.144 6.144l-102.4 16.384c-5.12 0-11.264-5.12-11.264-11.264l11.264-108.544c0-5.12 6.144-5.12 6.144-5.12l102.4 102.4zM762.88 129.792l62.464-62.464c6.144-6.144 12.288-6.144 17.408 0l22.528 22.528c6.144 5.12 6.144 11.264 0 17.408l-62.464 62.464-39.936-39.936zM283.648 94.976c6.144-5.12 6.144 0 6.144 6.144l11.264 108.544c0 5.12-6.144 11.264-11.264 11.264l-108.544-11.264c-6.144 0-6.144-6.144-6.144-6.144l108.544-108.544zM221.184 163.584l-62.464-62.464c-6.144-6.144-6.144-11.264 0-17.408l22.528-22.528c5.12-6.144 11.264-6.144 17.408 0l62.464 62.464-39.936 39.936zM334.848 438.016v-239.616h348.16v239.616h-348.16zM637.952 238.336h-263.168v153.6h263.168v-153.6z" />
<glyph unicode="&#xe892;" glyph-name="code" data-tags="code" d="M446.464 194.304c6.144-6.144 6.144-12.288 6.144-19.456v-61.44c0-7.168-6.144-7.168-6.144-7.168l-230.4 156.672c-6.144 6.144-6.144 12.288-6.144 18.432v50.176c0 6.144 6.144 12.288 6.144 18.432l230.4 155.648c6.144 6.144 6.144 0 6.144-6.144v-62.464c0-6.144-6.144-12.288-6.144-18.432l-161.792-112.64c-6.144-6.144-6.144-6.144 0-12.288l161.792-99.328zM733.184 299.776c6.144 6.144 6.144 6.144 0 12.288l-155.648 112.64c-6.144 6.144-6.144 12.288-6.144 18.432v62.464c0 6.144 6.144 6.144 6.144 6.144l230.4-155.648c6.144-6.144 6.144-12.288 6.144-18.432v-50.176c0-6.144-6.144-12.288-6.144-18.432l-230.4-155.648c-6.144-7.168-6.144 0-6.144 6.144v62.464c0 6.144 6.144 12.288 6.144 18.432l155.648 99.328z" />
<glyph unicode="&#xe893;" glyph-name="download" data-tags="download" d="M353.28 395.008c-12.288 0-17.408-6.144-6.144-18.432l153.6-187.392c5.12-12.288 23.552-12.288 28.672 0l153.6 187.392c6.144 12.288 6.144 18.432-6.144 18.432h-323.584zM571.392 382.72v135.168c0 12.288-12.288 23.552-23.552 23.552h-70.656c-12.288 0-23.552-11.264-23.552-23.552v-141.312h117.76zM647.168 247.552c-5.12 0-17.408-6.144-23.552-11.264l-75.776-94.208c-6.144-6.144-18.432-18.432-23.552-23.552 0 0-6.144-6.144-12.288-6.144s-17.408 11.264-17.408 11.264c-6.144 6.144-17.408 18.432-23.552 23.552l-76.8 94.208c-6.144 6.144-17.408 12.288-23.552 12.288h-123.904c-5.12 0-17.408-6.144-17.408-17.408v-141.312c0-6.144 6.144-18.432 17.408-18.432h530.432c6.144 0 17.408 6.144 17.408 18.432v141.312c0 5.12-6.144 17.408-17.408 17.408l-130.048-6.144zM300.032 135.936c-17.408 0-29.696 11.264-29.696 29.696s12.288 28.672 29.696 28.672c17.408 0 29.696-11.264 29.696-28.672s-12.288-29.696-29.696-29.696v0z" />
<glyph unicode="&#xe894;" glyph-name="delete" data-tags="delete" d="M615.424 308.992l134.144 134.144c10.24 10.24 10.24 30.72 0 41.984l-62.464 61.44c-10.24 10.24-30.72 10.24-40.96 0l-134.144-134.144-134.144 134.144c-10.24 10.24-30.72 10.24-40.96 0l-62.464-61.44c-10.24-11.264-10.24-31.744 0-41.984l134.144-134.144-134.144-134.144c-10.24-10.24-10.24-30.72 0-40.96l62.464-61.44c10.24-10.24 30.72-10.24 40.96 0l134.144 134.144 134.144-134.144c10.24-10.24 30.72-10.24 40.96 0l62.464 61.44c10.24 10.24 10.24 30.72 0 40.96l-134.144 134.144z" />
<glyph unicode="&#xe900;" glyph-name="edit-image" data-tags="edit-image" d="M300.032 632.576c69.632 22.528 134.144 14.336 189.44-33.792 56.32-48.128 77.824-110.592 63.488-183.296-3.072-12.288 0-19.456 8.192-27.648 94.208-94.208 156.672-156.672 250.88-250.88 5.12-5.12 11.264-10.24 15.36-16.384 39.936-50.176 17.408-123.904-44.032-142.336-36.864-11.264-68.608 0-95.232 27.648-96.256 95.232-160.768 160.768-257.024 257.024-7.168 6.144-12.288 8.192-22.528 6.144-117.76-26.624-229.376 61.44-231.424 181.248-1.024 26.624 3.072 52.224 15.36 77.824 34.816-34.816 68.608-67.584 101.376-101.376 11.264-10.24 21.504-15.36 36.864-15.36 14.336 0 24.576 4.096 34.816 15.36 10.24 12.288 22.528 22.528 33.792 34.816 14.336 14.336 14.336 46.080 0 60.416-34.816 34.816-70.656 70.656-106.496 106.496 4.096 2.048 6.144 3.072 7.168 4.096zM703.488 74.496c0-24.576 20.48-46.080 45.056-45.056 23.552 0 44.032 20.48 44.032 44.032s-20.48 44.032-44.032 44.032c-24.576 1.024-45.056-19.456-45.056-43.008z" />
<glyph unicode="&#xe901;" glyph-name="hourglass" data-tags="hourglass" d="M733.184-0.256c-147.456 0-294.912 0-443.392 0 0 2.048 0 4.096 0 6.144 0 14.336-1.024 32.768-1.024 47.104 1.024 39.936 7.168 77.824 19.456 114.688 17.408 52.224 44.032 96.256 80.896 131.072 5.12 4.096 9.216 7.168 14.336 11.264 0 1.024 0 1.024-1.024 1.024-1.024 1.024-2.048 3.072-4.096 4.096-27.648 22.528-50.176 51.2-67.584 84.992-30.72 59.392-44.032 123.904-41.984 192.512 1.024 7.168 1.024 18.432 1.024 25.6 148.48 0 295.936 0 443.392 0 0-1.024 1.024-2.048 1.024-4.096 2.048-36.864 1.024-76.8-6.144-113.664-14.336-72.704-45.056-133.12-95.232-179.2-4.096-4.096-8.192-7.168-12.288-10.24 0-1.024 0-1.024 1.024-2.048 0 0 1.024-1.024 2.048-2.048 41.984-33.792 71.68-79.872 91.136-135.168 11.264-34.816 18.432-69.632 19.456-106.496 1.024-20.48 0-45.056-1.024-65.536zM687.104 43.776c0 6.144 1.024 12.288 0 18.432-1.024 36.864-7.168 73.728-19.456 108.544-18.432 49.152-46.080 88.064-89.088 108.544-2.048 1.024-3.072 3.072-3.072 6.144 1.024 16.384 1.024 32.768 0 50.176 0 3.072 2.048 5.12 4.096 6.144 9.216 6.144 18.432 10.24 27.648 17.408 29.696 23.552 49.152 56.32 62.464 95.232 10.24 30.72 15.36 62.464 17.408 95.232 1.024 9.216 0 18.432 0 27.648-116.736 0-233.472 0-351.232 0 1.024-9.216 1.024-17.408 1.024-25.6 2.048-36.864 9.216-72.704 21.504-107.52 18.432-47.104 45.056-82.944 87.040-102.4 2.048-1.024 3.072-3.072 3.072-6.144-1.024-16.384-1.024-33.792 0-51.2 0-3.072-1.024-5.12-4.096-6.144-5.12-2.048-11.264-5.12-16.384-9.216-33.792-22.528-56.32-57.344-71.68-99.328-12.288-35.84-18.432-72.704-19.456-110.592-1.024-5.12 0-10.24 0-16.384 116.736 1.024 233.472 1.024 350.208 1.024zM410.624 462.592c67.584 0 135.168 0 203.776 0-4.096-6.144-7.168-12.288-11.264-18.432-11.264-16.384-24.576-30.72-39.936-40.96s-27.648-25.6-32.768-47.104c-1.024-7.168-2.048-14.336-2.048-21.504-1.024-17.408-1.024-33.792 0-51.2 1.024-28.672 12.288-49.152 31.744-62.464 43.008-30.72 66.56-76.8 75.776-133.12 1.024-1.024 1.024-3.072 1.024-5.12-82.944 0-165.888 0-249.856 0 3.072 20.48 8.192 39.936 16.384 58.368 13.312 33.792 32.768 59.392 59.392 77.824 16.384 12.288 27.648 28.672 31.744 51.2 1.024 5.12 2.048 10.24 2.048 15.36 0 18.432 0 36.864-1.024 55.296-1.024 24.576-11.264 43.008-27.648 57.344-9.216 7.168-19.456 14.336-27.648 22.528-12.288 11.264-21.504 25.6-29.696 41.984z" />
<glyph unicode="&#xe902;" glyph-name="plus-icon" data-tags="plus-icon" d="M768 274.176c0-18.432-15.36-34.816-34.816-34.816h-151.552v-151.552c0-19.456-15.36-34.816-34.816-34.816h-69.632c-19.456 0-34.816 15.36-34.816 34.816v151.552h-151.552c-19.456 0-34.816 16.384-34.816 34.816v69.632c0 19.456 15.36 35.84 34.816 35.84h151.552v150.528c0 19.456 15.36 35.84 34.816 35.84h69.632c19.456 0 34.816-16.384 34.816-35.84v-150.528h151.552c19.456 0 34.816-16.384 34.816-35.84z" />
<glyph unicode="&#xe903;" glyph-name="video-upload-icon" data-tags="video-upload-icon" d="M396.288 270.080v-128c0-21.504 20.48-43.008 41.984-43.008h128c21.504 0 43.008 17.408 43.008 43.008v128c0 21.504-17.408 43.008-43.008 43.008h-128c-21.504 0-41.984-17.408-41.984-43.008zM796.672 441.088l-102.4 106.496c-12.288 12.288-37.888 21.504-55.296 21.504h-140.288l20.48-43.008h90.112v-136.192c0-17.408 12.288-30.72 29.696-30.72h141.312v-340.992h-427.008v328.704h-43.008v-340.992c0-17.408 13.312-30.72 29.696-30.72h448.512c17.408 0 29.696 13.312 29.696 30.72v384c4.096 16.384-8.192 37.888-21.504 51.2zM652.288 398.080v123.904c4.096 0 12.288-4.096 12.288-9.216l102.4-102.4c4.096-4.096 4.096-8.192 8.192-12.288h-122.88zM737.28 108.288v195.584c0 4.096-4.096 9.216-8.192 9.216s-9.216 0-13.312-5.12l-89.088-89.088v-29.696l89.088-90.112c8.192-4.096 8.192 0 13.312 0 4.096 4.096 8.192 4.096 8.192 9.216zM361.472 415.488v136.192l60.416-59.392c8.192-9.216 16.384-5.12 25.6 0l12.288 12.288c8.192 8.192 8.192 17.408 0 25.6l-114.688 106.496c-9.216 9.216-17.408 9.216-21.504 0l-115.712-110.592c-4.096-8.192-4.096-17.408 0-25.6l13.312-13.312c8.192-8.192 16.384-8.192 21.504 0l59.392 60.416v-137.216c0-8.192 8.192-16.384 17.408-16.384h25.6c0 0 16.384 8.192 16.384 21.504z" />
<glyph unicode="&#xe904;" glyph-name="play-icon" data-tags="play-icon" d="M375.808 544.512c80.896 46.080 187.392 46.080 272.384 0 43.008-25.6 72.704-56.32 98.304-98.304 72.704-128 29.696-294.912-98.304-371.712-128-72.704-293.888-29.696-370.688 98.304-47.104 80.896-47.104 187.392 0 273.408 21.504 41.984 55.296 72.704 98.304 98.304zM644.096 292.608c13.312 8.192 13.312 29.696 0 37.888l-191.488 111.616c-9.216 4.096-13.312 4.096-21.504 0s-13.312-13.312-13.312-21.504v-226.304c0-8.192 5.12-17.408 13.312-21.504s17.408-4.096 21.504 0l191.488 119.808z" />
<glyph unicode="&#xe905;" glyph-name="copy" data-tags="copy" d="M721.92 486.144h-247.808c-65.536 0-118.784-53.248-118.784-118.784v-288.768c0-65.536 53.248-118.784 118.784-118.784h247.808c66.56 0 119.808 53.248 119.808 118.784v288.768c0 65.536-53.248 118.784-119.808 118.784zM778.24 81.664c0-30.72-24.576-56.32-56.32-56.32h-247.808c-30.72 0-56.32 25.6-56.32 56.32v285.696c0 31.744 25.6 56.32 56.32 56.32h247.808c31.744 0 56.32-24.576 56.32-56.32v-285.696zM245.76 251.648v288.768c0 30.72 24.576 56.32 56.32 56.32h247.808c30.72 0 56.32-25.6 56.32-56.32v-19.456h62.464v19.456c0 65.536-53.248 118.784-119.808 118.784h-246.784c-66.56 0-119.808-53.248-119.808-118.784v-288.768c0-66.56 53.248-119.808 119.808-119.808h18.432v63.488h-18.432c-31.744-3.072-56.32 21.504-56.32 56.32zM680.96 285.44h-162.816c-18.432 0-31.744 13.312-31.744 31.744s13.312 31.744 31.744 31.744h162.816c19.456 0 31.744-13.312 31.744-31.744s-15.36-31.744-31.744-31.744zM680.96 192.256h-162.816c-18.432 0-31.744 12.288-31.744 30.72s13.312 31.744 31.744 31.744h162.816c19.456 0 31.744-13.312 31.744-31.744s-15.36-30.72-31.744-30.72zM680.96 98.048h-162.816c-18.432 0-31.744 12.288-31.744 30.72s13.312 31.744 31.744 31.744h162.816c19.456 0 31.744-12.288 31.744-31.744s-15.36-30.72-31.744-30.72z" />
<glyph unicode="&#xe906;" glyph-name="examples-icon" data-tags="examples-icon" d="M212.992 157.44c90.112 38.912 184.32 68.608 273.408 17.408v281.6c-68.608 47.104-157.696 55.296-234.496 13.312l-38.912-312.32zM811.008 157.44l-43.008 316.416c-72.704 37.888-165.888 33.792-234.496-17.408v-285.696c94.208 51.2 187.392 21.504 277.504-13.312zM832.512 511.744c-51.2 29.696-111.616 47.104-171.008 55.296-51.2 0-102.4-8.192-149.504-29.696-47.104 21.504-98.304 29.696-149.504 29.696-59.392-4.096-118.784-25.6-169.984-55.296l-64.512-451.584c0 0 29.696-17.408 110.592 20.48 47.104 25.6 102.4 34.816 158.72 25.6 41.984-4.096 84.992-20.48 114.688-55.296v0c29.696 34.816 72.704 51.2 115.712 55.296 55.296 5.12 106.496-4.096 157.696-29.696 80.896-37.888 110.592-21.504 110.592-21.504l-63.488 456.704zM793.6 106.24c-43.008 21.504-89.088 34.816-140.288 34.816-9.216 0-21.504 0-30.72 0-41.984-4.096-80.896-17.408-114.688-43.008-33.792 25.6-72.704 38.912-115.712 43.008-12.288 0-20.48 0-33.792 0-47.104 0-94.208-9.216-136.192-29.696-21.504-13.312-47.104-21.504-72.704-25.6l63.488 413.696c47.104 25.6 98.304 37.888 149.504 41.984 47.104 0 94.208-8.192 137.216-25.6l12.288-8.192 13.312 4.096c41.984 17.408 89.088 25.6 136.192 25.6 51.2-4.096 102.4-16.384 149.504-41.984l59.392-418.816c-29.696 9.216-51.2 17.408-76.8 29.696z" />
<glyph unicode="&#xe907;" glyph-name="tutorials-icon" data-tags="tutorials-icon" d="M887.808 420.608l-375.808-111.616h-4.096l-218.112 68.608c-20.48-25.6-33.792-59.392-33.792-98.304 21.504-12.288 25.6-37.888 13.312-59.392-5.12-4.096-9.216-8.192-13.312-13.312l17.408-144.384c0-4.096 0-4.096-4.096-9.216 0 0 0 0-5.12 0h-63.488c-4.096 0-4.096 0-8.192 5.12 0 4.096-5.12 4.096-5.12 8.192l17.408 145.408c-12.288 8.192-17.408 20.48-17.408 33.792 0 17.408 9.216 29.696 21.504 37.888 0 38.912 13.312 76.8 34.816 111.616l-107.52 29.696c-8.192 4.096-8.192 8.192-8.192 17.408 0 4.096 4.096 4.096 4.096 4.096l375.808 118.784h4.096l375.808-122.88c4.096 0 8.192-5.12 8.192-9.216s-4.096-8.192-8.192-12.288zM724.992 224c5.12-47.104-93.184-84.992-212.992-84.992s-212.992 37.888-212.992 84.992l4.096 106.496 191.488-63.488c5.12 0 13.312 0 17.408 0s13.312 0 17.408 4.096l191.488 59.392 4.096-106.496z" />
<glyph unicode="&#xe908;" glyph-name="info-important-description" data-tags="info-important-description" d="M512 651.008c-188.416 0-340.992-152.576-340.992-342.016s152.576-340.992 340.992-340.992 340.992 152.576 340.992 340.992-152.576 342.016-340.992 342.016v0zM512-3.328c-173.056 0-312.32 140.288-312.32 312.32s139.264 313.344 312.32 313.344c173.056 0 312.32-140.288 312.32-313.344 0-172.032-139.264-312.32-312.32-312.32v0zM512 558.848c-138.24 0-249.856-111.616-249.856-249.856s111.616-248.832 249.856-248.832 249.856 111.616 249.856 248.832-111.616 249.856-249.856 249.856v0z" />
<glyph unicode="&#xe909;" glyph-name="icon-info" data-tags="icon-info" d="M468.992 448.256h87.040c0 0 0 0 0 0 6.144 0 12.288 3.072 15.36 7.168 4.096 4.096 7.168 10.24 7.168 16.384 0 0 0 0 0 0v70.656c0 0 0 0 0 0 0 6.144-3.072 11.264-7.168 16.384-3.072 4.096-9.216 6.144-15.36 6.144 0 0 0 0 0 0h-87.040c0 0 0 0 0 0-6.144 0-11.264-2.048-15.36-6.144-4.096-5.12-6.144-10.24-6.144-16.384 0 0 0 0 0 0v-70.656c0 0 0 0 0 0 0-6.144 2.048-11.264 6.144-15.36 4.096-5.12 9.216-7.168 15.36-8.192zM599.040 146.176h-22.528v209.92c0 0 0 0 0 0 0 6.144-2.048 11.264-6.144 15.36-4.096 5.12-9.216 7.168-15.36 7.168 0 0 0 0 0 0h-130.048c0 0 0 0 0 0-6.144 0-11.264-2.048-15.36-7.168-4.096-4.096-6.144-9.216-6.144-15.36 0 0 0 0 0 0v-47.104c0 0 0 0 0 0 0-6.144 2.048-12.288 6.144-16.384s9.216-6.144 15.36-6.144c0 0 0 0 0 0h22.528v-140.288h-22.528c0 0 0 0 0 0-6.144 0-11.264-3.072-15.36-7.168s-6.144-9.216-6.144-15.36c0 0 0 0 0-1.024v-46.080c0 0 0 0 0 0 0-6.144 2.048-12.288 6.144-16.384s9.216-6.144 15.36-6.144c0 0 0 0 0 0h174.080c0 0 0 0 0 0 6.144 0 11.264 2.048 15.36 6.144s6.144 10.24 6.144 16.384c0 0 0 0 0 0v46.080c0 1.024 0 1.024 0 2.048 0 5.12-1.024 10.24-4.096 14.336-4.096 4.096-9.216 7.168-16.384 7.168 0 0-1.024 0-1.024 0z" />
<glyph unicode="&#xe90a;" glyph-name="paste" data-tags="paste" d="M394.24 627.456h-74.752c-66.56 0-119.808-53.248-119.808-118.784v-288.768c0-56.32 37.888-100.352 88.064-115.712v68.608c-15.36 10.24-24.576 25.6-24.576 47.104v288.768c0 31.744 24.576 56.32 56.32 56.32h131.072c0 0 0 0 3.072 3.072v0c0 31.744-27.648 59.392-59.392 59.392zM704.512 517.888c0 0-27.648 0-40.96 0-12.288 34.816-43.008 59.392-83.968 59.392s-69.632-24.576-81.92-59.392c-12.288 0-40.96 0-40.96 0-65.536 0-118.784-53.248-118.784-118.784v-288.768c0-65.536 53.248-119.808 118.784-119.808h247.808c66.56 0 119.808 54.272 119.808 119.808v285.696c3.072 65.536-53.248 121.856-119.808 121.856zM582.656 530.176c21.504 0 40.96-18.432 40.96-39.936s-19.456-40.96-40.96-40.96c-22.528 0-40.96 18.432-40.96 40.96s15.36 39.936 40.96 39.936zM764.928 107.264c0-31.744-25.6-56.32-57.344-56.32h-250.88c-30.72 0-56.32 24.576-56.32 56.32v288.768c0 18.432 10.24 36.864 25.6 47.104v0c0-44.032 34.816-78.848 77.824-78.848h160.768c43.008 0 77.824 34.816 77.824 78.848v0c12.288-10.24 22.528-28.672 22.528-47.104v-288.768z" />
<glyph unicode="&#xe90b;" glyph-name="reuse" data-tags="reuse" d="M735.232 529.152c-55.296 61.44-134.144 100.352-223.232 100.352-164.864 0-299.008-134.144-299.008-299.008h74.752c0 123.904 100.352 224.256 224.256 224.256 68.608 0 129.024-30.72 169.984-78.848l-70.656-70.656h199.68v199.68l-75.776-75.776zM512 106.24c-68.608 0-129.024 31.744-169.984 79.872l70.656 69.632h-199.68v-198.656l75.776 75.776c55.296-61.44 134.144-100.352 223.232-100.352 164.864 0 299.008 133.12 299.008 297.984h-74.752c0-123.904-100.352-224.256-224.256-224.256z" />
<glyph unicode="&#xe90c;" glyph-name="info-outlined" data-tags="info-outlined" d="M466.944 64.256h90.112v268.288h-90.112v-268.288zM512 736c-246.784 0-447.488-200.704-447.488-447.488s200.704-448.512 447.488-448.512 448.512 200.704 448.512 448.512-200.704 447.488-448.512 447.488zM512-70.912c-197.632 0-358.4 161.792-358.4 359.424s160.768 358.4 358.4 358.4 358.4-161.792 358.4-358.4-160.768-359.424-358.4-359.424zM466.944 422.656h90.112v89.088h-90.112v-89.088z" />
<glyph unicode="&#xe90d;" glyph-name="spinner" data-tags="spinner" d="M600.064 690.944c0-49.152-38.912-88.064-88.064-88.064s-88.064 38.912-88.064 88.064 39.936 88.064 88.064 88.064 88.064-39.936 88.064-88.064zM512 16.128c-48.128 0-88.064-39.936-88.064-88.064s39.936-88.064 88.064-88.064 88.064 38.912 88.064 88.064-38.912 88.064-88.064 88.064zM892.928 397.056c-48.128 0-87.040-38.912-87.040-88.064s38.912-88.064 87.040-88.064 88.064 39.936 88.064 88.064-38.912 88.064-88.064 88.064zM219.136 308.992c0 49.152-39.936 88.064-88.064 88.064s-88.064-38.912-88.064-88.064 38.912-88.064 88.064-88.064 88.064 39.936 88.064 88.064zM242.688 127.744c-49.152 0-88.064-38.912-88.064-88.064s38.912-88.064 88.064-88.064 88.064 38.912 88.064 88.064c0 49.152-39.936 88.064-88.064 88.064zM781.312 127.744c-48.128 0-88.064-38.912-88.064-88.064s39.936-88.064 88.064-88.064 88.064 38.912 88.064 88.064c0 49.152-38.912 88.064-88.064 88.064zM242.688 667.392c-49.152 0-88.064-39.936-88.064-88.064s38.912-88.064 88.064-88.064 88.064 38.912 88.064 88.064-39.936 88.064-88.064 88.064z" />
<glyph unicode="&#xe90e;" glyph-name="copy-enabled" data-tags="copy-enabled" d="M614.4 691.968h-317.44c-74.752 0-136.192-60.416-136.192-136.192v-369.664c0-44.032 21.504-82.944 53.248-108.544v70.656c-4.096 11.264-7.168 23.552-7.168 37.888v369.664c0 49.152 40.96 90.112 90.112 90.112h317.44c15.36 0 29.696-4.096 41.984-11.264h68.608c-24.576 34.816-64.512 57.344-110.592 57.344zM674.816 150.272h-209.92c-14.336 0-22.528-8.192-22.528-23.552s8.192-22.528 22.528-22.528h209.92c11.264 0 22.528 8.192 22.528 22.528 0 15.36-8.192 23.552-22.528 23.552zM674.816 271.104h-209.92c-14.336 0-22.528-8.192-22.528-23.552s8.192-22.528 22.528-22.528h209.92c11.264 0 22.528 8.192 22.528 22.528 0 15.36-8.192 23.552-22.528 23.552zM727.040 569.088h-318.464c-74.752 0-135.168-61.44-135.168-136.192v-370.688c0-74.752 60.416-135.168 135.168-135.168v0h318.464c74.752 0 136.192 60.416 136.192 135.168v370.688c0 74.752-61.44 136.192-136.192 136.192zM816.128 66.304c0-49.152-39.936-89.088-89.088-89.088h-318.464c-49.152 0-89.088 39.936-89.088 89.088v366.592c0 49.152 39.936 90.112 89.088 90.112h318.464c49.152 0 89.088-40.96 89.088-90.112v-366.592zM674.816 391.936h-209.92c-14.336 0-22.528-8.192-22.528-23.552s8.192-22.528 22.528-22.528h209.92c11.264 0 22.528 8.192 22.528 22.528 0 15.36-8.192 23.552-22.528 23.552z" />
<glyph unicode="&#xe90f;" glyph-name="copy-disabled" data-tags="copy-disabled" d="M614.4 691.968h-317.44c-74.752 0-136.192-60.416-136.192-136.192v-369.664c0-44.032 21.504-82.944 53.248-108.544v70.656c-4.096 11.264-7.168 23.552-7.168 37.888v369.664c0 49.152 40.96 90.112 90.112 90.112h317.44c15.36 0 29.696-4.096 41.984-11.264h68.608c-24.576 34.816-64.512 57.344-110.592 57.344zM727.040 569.088h-318.464c-74.752 0-135.168-61.44-135.168-136.192v-370.688c0-74.752 60.416-135.168 135.168-135.168v0h318.464c74.752 0 136.192 60.416 136.192 135.168v370.688c0 74.752-61.44 136.192-136.192 136.192zM816.128 66.304c0-49.152-39.936-89.088-89.088-89.088h-318.464c-49.152 0-89.088 39.936-89.088 89.088v366.592c0 49.152 39.936 90.112 89.088 90.112h318.464c49.152 0 89.088-40.96 89.088-90.112v-366.592zM709.632 352l-27.648 26.624-109.568-108.544-109.568 108.544-27.648-26.624 109.568-109.568-109.568-109.568 27.648-27.648 109.568 109.568 109.568-109.568 27.648 27.648-109.568 109.568 109.568 109.568z" />
<glyph unicode="&#xe910;" glyph-name="paste-enabled" data-tags="paste-enabled" d="M410.624-59.648c-75.776 0-137.216 61.44-137.216 136.192v373.76c0 74.752 61.44 136.192 137.216 136.192h64.512l4.096 11.264c15.36 41.984 48.128 65.536 89.088 65.536 43.008 0 78.848-24.576 93.184-65.536l4.096-11.264h65.536c36.864 0 72.704-15.36 99.328-43.008 25.6-27.648 38.912-61.44 36.864-97.28v-369.664c0-74.752-61.44-136.192-136.192-136.192h-320.512zM361.472 520.96c-25.6-14.336-40.96-44.032-40.96-74.752v-373.76c0-49.152 39.936-90.112 90.112-90.112h324.608c44.032 0 79.872 31.744 88.064 72.704h2.048v391.168c0 28.672-14.336 58.368-34.816 74.752l-27.648 20.48v-17.408c0-47.104-36.864-83.968-83.968-83.968h-207.872c-47.104 0-83.968 36.864-83.968 83.968v13.312l-25.6-16.384zM572.416 616.192c-27.648 0-49.152-20.48-49.152-48.128 0-26.624 22.528-49.152 49.152-49.152s49.152 22.528 49.152 49.152c0 25.6-22.528 48.128-49.152 48.128zM421.888 646.912c8.192 8.192 17.408 16.384 24.576 25.6 2.048 2.048 4.096 4.096 6.144 6.144h-158.72c-75.776 0-137.216-61.44-137.216-137.216v-373.76c0-45.056 21.504-84.992 55.296-110.592v68.608c-6.144 12.288-9.216 26.624-9.216 41.984v373.76c0 50.176 40.96 90.112 91.136 90.112h116.736c3.072 5.12 7.168 10.24 11.264 15.36z" />
<glyph unicode="&#xe911;" glyph-name="paste-disabled" data-tags="paste-disabled" d="M410.624-59.648c-75.776 0-137.216 61.44-137.216 136.192v373.76c0 74.752 61.44 136.192 137.216 136.192h64.512l4.096 11.264c15.36 41.984 48.128 65.536 89.088 65.536 43.008 0 78.848-24.576 93.184-65.536l4.096-11.264h65.536c36.864 0 72.704-15.36 99.328-43.008 25.6-27.648 38.912-61.44 36.864-97.28v-369.664c0-74.752-61.44-136.192-136.192-136.192h-320.512zM361.472 520.96c-25.6-14.336-40.96-44.032-40.96-74.752v-373.76c0-49.152 39.936-90.112 90.112-90.112h324.608c44.032 0 79.872 31.744 88.064 72.704h2.048v391.168c0 28.672-14.336 58.368-34.816 74.752l-27.648 20.48v-17.408c0-47.104-36.864-83.968-83.968-83.968h-207.872c-47.104 0-83.968 36.864-83.968 83.968v13.312l-25.6-16.384zM572.416 616.192c-27.648 0-49.152-20.48-49.152-48.128 0-26.624 22.528-49.152 49.152-49.152s49.152 22.528 49.152 49.152c0 25.6-22.528 48.128-49.152 48.128zM421.888 646.912c8.192 8.192 17.408 16.384 24.576 25.6 2.048 2.048 4.096 4.096 6.144 6.144h-158.72c-75.776 0-137.216-61.44-137.216-137.216v-373.76c0-45.056 21.504-84.992 55.296-110.592v68.608c-6.144 12.288-9.216 26.624-9.216 41.984v373.76c0 50.176 40.96 90.112 91.136 90.112h116.736c3.072 5.12 7.168 10.24 11.264 15.36zM718.848 346.88l-28.672 27.648-110.592-110.592-110.592 110.592-27.648-27.648 110.592-110.592-110.592-110.592 27.648-28.672 110.592 110.592 110.592-110.592 28.672 28.672-110.592 110.592 110.592 110.592z" />
<glyph unicode="&#xe912;" glyph-name="button-disabled" data-tags="button-disabled" d="M852.992 582.4l-68.608 68.608-272.384-272.384-272.384 272.384-68.608-68.608 272.384-273.408-272.384-272.384 68.608-68.608 272.384 272.384 272.384-272.384 68.608 68.608-272.384 272.384z" />
<glyph unicode="&#xe913;" glyph-name="audio-icon" data-tags="audio-icon" d="M473.088 472.832v-319.488c0-10.24-8.192-18.432-18.432-18.432-5.12 0-10.24 2.048-13.312 5.12l-98.304 98.304h-76.8c-10.24 0-18.432 8.192-19.456 18.432v112.64c1.024 10.24 9.216 18.432 19.456 18.432h76.8l97.28 98.304c8.192 7.168 19.456 7.168 26.624 0 4.096-4.096 6.144-8.192 6.144-13.312v0zM585.728 355.072c8.192-12.288 13.312-26.624 13.312-41.984s-5.12-29.696-13.312-41.984c-7.168-12.288-19.456-22.528-33.792-27.648-2.048-1.024-4.096-2.048-7.168-2.048-5.12 0-9.216 2.048-13.312 6.144-4.096 3.072-6.144 8.192-5.12 13.312-1.024 4.096 1.024 7.168 3.072 10.24s5.12 5.12 8.192 7.168c4.096 2.048 7.168 5.12 10.24 7.168 4.096 3.072 7.168 6.144 9.216 10.24 4.096 11.264 4.096 23.552 0 33.792-2.048 4.096-5.12 8.192-9.216 11.264-3.072 2.048-6.144 4.096-10.24 6.144-3.072 2.048-6.144 5.12-8.192 7.168-2.048 3.072-4.096 7.168-3.072 11.264-1.024 5.12 2.048 9.216 5.12 13.312 4.096 3.072 8.192 5.12 13.312 5.12 3.072 0 5.12 0 7.168-1.024 14.336-5.12 25.6-14.336 33.792-27.648v0zM663.552 397.056c33.792-51.2 33.792-116.736 0-167.936-16.384-24.576-38.912-44.032-66.56-56.32-3.072-1.024-5.12-1.024-7.168-1.024-6.144 0-10.24 2.048-14.336 6.144-3.072 3.072-5.12 8.192-5.12 13.312 0 7.168 4.096 14.336 11.264 17.408 8.192 3.072 15.36 8.192 22.528 12.288 51.2 36.864 61.44 108.544 24.576 158.72-6.144 9.216-15.36 18.432-24.576 24.576-7.168 5.12-14.336 9.216-22.528 13.312-7.168 3.072-11.264 10.24-11.264 17.408 0 10.24 8.192 19.456 18.432 19.456 3.072 0 5.12-1.024 8.192-2.048 26.624-11.264 50.176-30.72 66.56-55.296zM741.376 438.016c68.608-104.448 39.936-245.76-65.536-315.392-11.264-7.168-22.528-13.312-34.816-18.432-3.072-1.024-5.12-2.048-8.192-2.048-10.24 0-18.432 8.192-18.432 19.456 0 7.168 4.096 14.336 11.264 17.408 2.048 1.024 4.096 2.048 7.168 3.072s4.096 2.048 6.144 3.072c8.192 4.096 16.384 9.216 24.576 15.36 23.552 17.408 43.008 39.936 57.344 66.56 26.624 54.272 26.624 117.76 0 172.032-14.336 26.624-33.792 49.152-57.344 66.56-8.192 6.144-16.384 11.264-24.576 15.36-2.048 1.024-4.096 2.048-6.144 3.072s-5.12 2.048-7.168 3.072c-7.168 3.072-11.264 10.24-11.264 17.408 0 10.24 8.192 18.432 18.432 19.456 3.072 0 6.144-1.024 8.192-2.048 40.96-17.408 75.776-46.080 100.352-83.968v0z" />
<glyph unicode="&#xe914;" glyph-name="audio-upload-icon" data-tags="audio-upload-icon" d="M796.672 441.088l-102.4 106.496c-12.288 12.288-37.888 20.48-55.296 20.48h-140.288l20.48-41.984h90.112v-137.216c0-16.384 12.288-29.696 29.696-29.696h141.312v-340.992h-427.008v328.704h-43.008v-340.992c0-17.408 13.312-30.72 29.696-30.72h448.512c17.408 0 29.696 13.312 29.696 30.72v384c4.096 16.384-8.192 37.888-21.504 51.2zM652.288 398.080v123.904c4.096 0 12.288-5.12 12.288-9.216l102.4-102.4c4.096-4.096 4.096-8.192 8.192-12.288h-122.88zM361.472 415.488v136.192l60.416-59.392c8.192-9.216 16.384-5.12 25.6 0l12.288 12.288c8.192 8.192 8.192 17.408 0 25.6l-114.688 106.496c-9.216 8.192-17.408 8.192-21.504 0l-115.712-110.592c-4.096-8.192-4.096-17.408 0-25.6l13.312-13.312c8.192-8.192 16.384-8.192 21.504 0l59.392 60.416v-137.216c0-8.192 8.192-16.384 17.408-16.384h25.6c0 0 16.384 8.192 16.384 21.504zM532.48 284.416v-187.392c0-6.144-5.12-11.264-5.12-11.264h-5.12c-5.12 0-5.12 0-10.24 5.12l-57.344 57.344h-47.104c-5.12 0-10.24 6.144-10.24 11.264v62.464c0 5.12 5.12 10.24 10.24 10.24h47.104l57.344 57.344c5.12 5.12 12.288 10.24 16.384 6.144s4.096-6.144 4.096-11.264zM616.448 112.384c20.48 20.48 30.72 47.104 30.72 77.824s-10.24 57.344-30.72 78.848c-10.24 10.24-21.504 10.24-31.744 0s-10.24-21.504 0-31.744c10.24-10.24 16.384-25.6 16.384-47.104s-5.12-30.72-16.384-47.104c-10.24-10.24-10.24-20.48 0-30.72 5.12-5.12 10.24-5.12 16.384-5.12s10.24 0 15.36 5.12zM689.152 60.16c31.744 36.864 47.104 77.824 47.104 124.928s-15.36 89.088-47.104 125.952c-10.24 15.36-20.48 15.36-30.72 10.24-10.24-10.24-10.24-21.504-5.12-31.744 20.48-25.6 35.84-62.464 35.84-99.328s-10.24-72.704-35.84-98.304c-11.264-11.264-5.12-26.624 5.12-31.744 5.12-5.12 10.24-5.12 15.36-5.12s10.24 0 15.36 5.12z" />
<glyph unicode="&#xe915;" glyph-name="hub-icon" data-tags="hub-icon" horiz-adv-x="3151" d="M2075.648 733.952c-52.224 50.176-132.096 71.68-238.592 71.68h-340.992v-181.248h-446.464l-34.816-149.504c128 59.392 304.128 51.2 410.624-47.104 114.688-105.472 118.784-280.576 43.008-409.6-30.72-50.176-72.704-90.112-122.88-116.736-22.528-11.264-46.080-15.36-67.584-24.576h346.112v335.872h181.248c125.952 0 261.12 36.864 320.512 158.72 53.248 110.592 43.008 274.432-49.152 361.472zM1835.008 444.16c-22.528-19.456-62.464-25.6-118.784-25.6h-92.16v205.824h103.424c46.080 0 96.256-7.168 123.904-47.104 11.264-16.384 17.408-35.84 17.408-57.344 0-29.696-13.312-57.344-33.792-75.776zM1104.896 337.664c-51.2 0-96.256-29.696-116.736-72.704l-258.048 29.696 116.736 510.976h-228.352v-387.072h-334.848v387.072h-283.648v-928.768h283.648v335.872h334.848v-335.872h348.16c-120.832 27.648-202.752 119.808-236.544 235.52l258.048 36.864c22.528-43.008 66.56-72.704 116.736-72.704 72.704 0 131.072 58.368 131.072 131.072 0 71.68-58.368 130.048-131.072 130.048zM2349.056-123.136h-89.088l40.96 192.512c4.096 17.408 11.264 47.104-3.072 62.464-7.168 6.144-16.384 9.216-25.6 9.216-8.192 0-15.36-2.048-21.504-6.144-37.888-22.528-51.2-80.896-61.44-120.832l-28.672-137.216h-88.064l97.28 458.752h88.064c-12.288-58.368-25.6-115.712-43.008-173.056h3.072c31.744 39.936 88.064 67.584 137.216 39.936s43.008-91.136 32.768-137.216zM2502.656 206.592h89.088l-40.96-191.488c-4.096-18.432-10.24-47.104 4.096-62.464 6.144-6.144 15.36-9.216 24.576-9.216 8.192 0 16.384 2.048 22.528 7.168 37.888 21.504 51.2 80.896 60.416 120.832l28.672 136.192h89.088l-69.632-330.752h-68.608l6.144 60.416h-1.024c-29.696-45.056-81.92-80.896-137.216-61.44-62.464 21.504-54.272 100.352-44.032 152.576zM3030.016 212.736c120.832 0 98.304-172.032 65.536-243.712-17.408-43.008-52.224-75.776-94.208-92.16-10.24-3.072-21.504-5.12-31.744-5.12-34.816 0-65.536 19.456-80.896 47.104l-3.072 1.024-16.384-43.008h-67.584l96.256 458.752h89.088l-18.432-83.968c-8.192-35.84-16.384-65.536-27.648-93.184l4.096 4.096c18.432 28.672 49.152 47.104 83.968 49.152zM2994.176 140.032c-77.824 0-118.784-205.824-35.84-197.632 65.536 7.168 114.688 198.656 35.84 198.656z" />
<glyph unicode="&#xe916;" glyph-name="update" data-tags="update" d="M17.408 436.992c51.2 230.4 253.952 400.384 496.64 400.384 136.192 0 260.096-53.248 351.232-141.312l86.016 86.016c7.168 8.192 17.408 12.288 29.696 12.288 23.552 0 43.008-18.432 43.008-41.984v-299.008c0-23.552-19.456-43.008-43.008-43.008h-299.008c-23.552 0-43.008 19.456-43.008 43.008 1.024 12.288 5.12 22.528 13.312 29.696l91.136 92.16c-60.416 58.368-143.36 94.208-235.52 94.208-122.88 0-230.4-65.536-290.816-163.84-12.288-22.528-24.576-48.128-33.792-74.752-4.096-13.312-12.288-19.456-21.504-19.456h-124.928c-11.264 1.024-19.456 10.24-20.48 21.504 0 1.024 1.024 2.048 1.024 4.096zM1.024 197.376c0 23.552 18.432 43.008 41.984 43.008h299.008c23.552 0 43.008-19.456 43.008-43.008-1.024-11.264-5.12-21.504-13.312-29.696l-91.136-91.136c60.416-56.32 142.336-91.136 232.448-91.136 121.856 0 229.376 64.512 289.792 160.768 13.312 23.552 24.576 49.152 34.816 75.776 3.072 12.288 11.264 18.432 20.48 18.432h132.096c0 0 0 0 1.024 0 10.24 0 19.456-8.192 21.504-18.432v0c-52.224-229.376-254.976-398.336-496.64-398.336 0 0-1.024 0-1.024 0-136.192 1.024-260.096 54.272-352.256 141.312l-87.040-86.016c-7.168-7.168-17.408-12.288-29.696-12.288-23.552 0-43.008 18.432-43.008 41.984z" />
<glyph unicode="&#xe917;" glyph-name="close" data-tags="close" d="M996.352-36.096l-117.76-117.76c-17.408-18.432-35.84-27.648-54.272-27.648s-45.056 9.216-54.272 27.648l-253.952 253.952-252.928-253.952c-18.432-18.432-36.864-27.648-54.272-27.648s-46.080 9.216-55.296 27.648l-125.952 117.76c-18.432 17.408-27.648 35.84-27.648 54.272s9.216 45.056 27.648 54.272l252.928 253.952-252.928 262.144c-18.432 18.432-27.648 36.864-27.648 55.296s9.216 45.056 27.648 54.272l117.76 117.76c8.192 17.408 35.84 26.624 54.272 26.624s45.056-9.216 54.272-26.624l253.952-253.952 252.928 253.952c18.432 17.408 36.864 26.624 55.296 26.624s45.056-9.216 54.272-26.624l117.76-117.76c17.408-18.432 26.624-36.864 26.624-54.272s-9.216-46.080-26.624-55.296l-253.952-252.928 253.952-253.952c17.408-18.432 26.624-36.864 26.624-54.272 9.216-27.648 0-46.080-17.408-63.488z" />
<glyph unicode="&#xe918;" glyph-name="question-outlined" data-tags="question-outlined" d="M512-181.504c-281.6 0-509.952 229.376-509.952 510.976s228.352 509.952 509.952 509.952c281.6 0 510.976-228.352 510.976-509.952s-229.376-510.976-510.976-510.976zM87.040 329.472c0-234.496 190.464-425.984 424.96-425.984s425.984 190.464 425.984 425.984-191.488 424.96-425.984 424.96c-234.496 0-424.96-190.464-424.96-424.96zM642.048 297.728c-33.792-19.456-55.296-32.768-55.296-53.248v-21.504c0-12.288-9.216-21.504-21.504-21.504h-106.496c-11.264 0-20.48 9.216-20.48 21.504v45.056c0 81.92 58.368 107.52 105.472 129.024 39.936 18.432 64.512 30.72 64.512 61.44 0 37.888-49.152 66.56-93.184 66.56-22.528 0-47.104-7.168-62.464-18.432-14.336-9.216-28.672-23.552-53.248-54.272-4.096-6.144-10.24-8.192-16.384-8.192-5.12 0-9.216 1.024-13.312 4.096l-71.68 54.272c-8.192 6.144-10.24 19.456-4.096 28.672 54.272 86.016 131.072 128 231.424 128 109.568 0 231.424-87.040 231.424-202.752 0-94.208-65.536-131.072-114.688-158.72zM586.752 20.224c0-11.264-9.216-20.48-21.504-20.48h-106.496c-11.264 0-20.48 9.216-20.48 20.48v106.496c0 12.288 9.216 21.504 20.48 21.504h106.496c12.288 0 21.504-9.216 21.504-21.504v-106.496z" />
<glyph unicode="&#xe919;" glyph-name="quality-approved" data-tags="quality-approved" d="M510.976-181.504c-282.624 1.024-510.976 229.376-510.976 512s229.376 512 512 512 512-229.376 512-512c0-282.624-230.4-512-513.024-512 0 0 0 0 0 0zM510.976 690.944c-199.68 0-362.496-161.792-362.496-362.496s162.816-362.496 362.496-362.496c200.704 0 362.496 162.816 362.496 362.496 0 1.024 0 2.048 0 2.048 0 200.704-161.792 363.52-362.496 363.52zM499.712 105.216c-8.192-8.192-18.432-13.312-30.72-13.312s-21.504 5.12-29.696 13.312l-193.536 193.536c-8.192 7.168-12.288 18.432-12.288 29.696s4.096 22.528 12.288 30.72l67.584 67.584c7.168 7.168 18.432 12.288 29.696 12.288s22.528-5.12 30.72-12.288l96.256-97.28 183.296 183.296c8.192 8.192 18.432 12.288 30.72 12.288s21.504-4.096 29.696-12.288l67.584-67.584c8.192-7.168 13.312-18.432 13.312-29.696s-5.12-22.528-13.312-30.72z" />
<glyph unicode="&#xe91a;" glyph-name="arrow-thick" data-tags="arrow-thick" d="M994.304 288.512c0-1.024 0-3.072 0-5.12 0-43.008-33.792-77.824-76.8-78.848h-461.824l194.56-193.536c15.36-15.36 24.576-35.84 24.576-59.392s-9.216-44.032-24.576-59.392l-49.152-49.152c-15.36-15.36-35.84-24.576-59.392-24.576 0 0 0 0 0 0-23.552 0-44.032 9.216-59.392 24.576l-431.104 429.056c-14.336 14.336-23.552 35.84-23.552 58.368 0 0 0 1.024 0 1.024 0 22.528 9.216 44.032 23.552 59.392l431.104 427.008c15.36 15.36 35.84 24.576 59.392 24.576s44.032-9.216 59.392-24.576l49.152-49.152c15.36-15.36 24.576-36.864 24.576-59.392s-9.216-45.056-24.576-60.416l-192.512-192.512h462.848c41.984-1.024 75.776-35.84 75.776-78.848 0-2.048 0-3.072 0-5.12z" />
<glyph unicode="&#xe91b;" glyph-name="grid-view" data-tags="grid-view" d="M472.064 446.208c0-43.008-34.816-78.848-78.848-78.848h-314.368c-43.008 0-78.848 35.84-78.848 78.848v240.64c0 44.032 35.84 78.848 78.848 78.848h315.392c43.008 0 78.848-34.816 78.848-78.848zM472.064-25.856c0-43.008-34.816-78.848-78.848-78.848h-314.368c-43.008 0-78.848 35.84-78.848 78.848v236.544c0 43.008 35.84 78.848 78.848 78.848h315.392c43.008 0 78.848-35.84 78.848-78.848zM1022.976 446.208c0-43.008-34.816-78.848-78.848-78.848h-314.368c-43.008 0-78.848 35.84-78.848 78.848v240.64c0 44.032 35.84 78.848 78.848 78.848h315.392c44.032 0 78.848-34.816 78.848-78.848zM1022.976-25.856c0-43.008-34.816-78.848-78.848-78.848h-314.368c-43.008 0-78.848 35.84-78.848 78.848v236.544c0 43.008 35.84 78.848 78.848 78.848h315.392c44.032 0 78.848-35.84 78.848-78.848z" />
<glyph unicode="&#xe91c;" glyph-name="list-view" data-tags="list-view" d="M292.864 585.472c0-1.024 0-1.024 0-2.048 0-30.72-24.576-55.296-55.296-56.32h-182.272c-30.72 1.024-55.296 25.6-55.296 56.32 0 1.024 0 1.024 0 2.048v117.76c0 1.024 0 1.024 0 2.048 0 30.72 24.576 55.296 55.296 56.32h182.272c30.72-1.024 55.296-25.6 55.296-56.32 0-1.024 0-1.024 0-2.048zM292.864 272.128c0-1.024 0-2.048 0-2.048 0-30.72-24.576-56.32-55.296-57.344h-182.272c-30.72 1.024-55.296 26.624-55.296 57.344 0 0 0 1.024 0 2.048v117.76c0 0 0 1.024 0 2.048 0 30.72 24.576 55.296 55.296 56.32h182.272c30.72-1.024 55.296-25.6 55.296-56.32 0-1.024 0-2.048 0-2.048zM292.864-42.24c0 0 0-1.024 0-2.048 0-29.696-24.576-55.296-55.296-56.32h-182.272c-30.72 1.024-55.296 26.624-55.296 56.32 0 1.024 0 2.048 0 2.048v118.784c0 0 0 1.024 0 1.024 0 30.72 24.576 56.32 55.296 57.344h182.272c30.72-1.024 55.296-26.624 55.296-57.344 0 0 0-1.024 0-2.048zM1024 585.472c0-1.024 0-1.024 0-2.048 0-30.72-24.576-55.296-54.272-56.32h-548.864c-30.72 1.024-55.296 25.6-55.296 56.32 0 1.024 0 1.024 0 2.048v117.76c0 1.024 0 1.024 0 2.048 0 30.72 24.576 55.296 55.296 56.32h547.84c30.72-1.024 55.296-25.6 55.296-56.32 0-1.024 0-1.024 0-2.048zM1024 272.128c0-1.024 0-2.048 0-2.048 0-30.72-24.576-56.32-54.272-57.344h-548.864c-30.72 1.024-55.296 26.624-55.296 57.344 0 0 0 1.024 0 2.048v117.76c0 0 0 1.024 0 2.048 0 30.72 24.576 55.296 55.296 56.32h547.84c30.72-1.024 55.296-25.6 55.296-56.32 0-1.024 0-2.048 0-2.048zM1024-42.24c0 0 0-1.024 0-2.048 0-29.696-24.576-55.296-54.272-56.32h-548.864c-30.72 1.024-55.296 26.624-55.296 56.32 0 1.024 0 2.048 0 2.048v118.784c0 0 0 1.024 0 1.024 0 30.72 24.576 56.32 55.296 57.344h547.84c30.72-1.024 55.296-26.624 55.296-57.344 0 0 0-1.024 0-2.048z" />
<glyph unicode="&#xe91d;" glyph-name="filters" data-tags="filters" d="M217.088 717.568v98.304c0 14.336-11.264 26.624-26.624 26.624h-9.216c-14.336 0-26.624-12.288-26.624-26.624v-98.304c-63.488-14.336-110.592-70.656-110.592-137.216s47.104-123.904 109.568-137.216l1.024-592.896c0-15.36 12.288-27.648 26.624-27.648h8.192c15.36 0 27.648 12.288 27.648 27.648v588.8c69.632 8.192 122.88 67.584 122.88 139.264 0 70.656-53.248 129.024-121.856 139.264zM549.888 300.8v515.072c0 14.336-12.288 26.624-27.648 26.624h-4.096c-15.36 0-27.648-12.288-27.648-26.624v-514.048c-70.656-12.288-124.928-73.728-124.928-147.456s54.272-135.168 123.904-147.456l1.024-159.744c0-14.336 12.288-26.624 27.648-26.624h4.096c15.36 0 27.648 12.288 27.648 26.624v159.744c67.584 15.36 116.736 74.752 116.736 146.432s-49.152 130.048-115.712 145.408zM979.968 477.952c0 68.608-50.176 125.952-116.736 136.192l-1.024 201.728c0 14.336-12.288 26.624-27.648 26.624h-6.144c-14.336 0-26.624-12.288-26.624-26.624v-205.824c-58.368-16.384-100.352-69.632-100.352-132.096s41.984-115.712 99.328-132.096l1.024-499.712c0-15.36 12.288-27.648 26.624-27.648h5.12c15.36 0 26.624 12.288 26.624 27.648v495.616c67.584 9.216 119.808 66.56 119.808 136.192z" />
<glyph unicode="&#xe91e;" glyph-name="feedback-forum" data-tags="feedback-forum" d="M472.064 137.984c0 109.568 122.88 197.632 275.456 197.632s276.48-88.064 276.48-197.632c-4.096-67.584-45.056-124.928-102.4-153.6 9.216-36.864 28.672-68.608 54.272-92.16 5.12-5.12 10.24-10.24 8.192-18.432v0c-1.024-6.144-7.168-11.264-13.312-11.264-1.024 0-1.024 0-1.024 0-13.312 1.024-25.6 3.072-36.864 7.168-54.272 12.288-102.4 38.912-142.336 73.728-7.168-1.024-14.336-1.024-22.528-1.024s-15.36 0-23.552 1.024c-149.504-1.024-272.384 86.016-272.384 194.56zM335.872 235.264c55.296 149.504 228.352 247.808 428.032 247.808h27.648c1.024 4.096 1.024 10.24 1.024 16.384s0 11.264-1.024 17.408c0 155.648-177.152 282.624-397.312 282.624s-394.24-129.024-394.24-285.696c5.12-98.304 64.512-182.272 148.48-223.232-13.312-52.224-41.984-96.256-78.848-130.048-7.168-8.192-14.336-15.36-12.288-25.6v0c2.048-10.24 10.24-17.408 20.48-17.408 0 0 1.024 0 1.024 0 19.456 2.048 36.864 5.12 53.248 10.24 76.8 19.456 145.408 56.32 201.728 106.496 3.072-1.024-2.048 1.024 2.048 1.024z" />
<glyph unicode="&#xe91f;" glyph-name="info-circle1" data-tags="info-circle1" d="M955.392 588.544c43.008-73.728 68.608-162.816 68.608-257.024s-25.6-183.296-69.632-260.096c-44.032-74.752-107.52-138.24-183.296-182.272-75.776-45.056-164.864-69.632-259.072-69.632s-183.296 24.576-259.072 69.632c-75.776 44.032-138.24 107.52-183.296 182.272-44.032 76.8-69.632 164.864-69.632 260.096s25.6 183.296 69.632 259.072c45.056 74.752 107.52 137.216 183.296 181.248 75.776 45.056 164.864 70.656 259.072 70.656s183.296-25.6 259.072-70.656c75.776-44.032 138.24-106.496 183.296-181.248zM683.008 8.96v105.472c0 1.024 0 1.024 0 1.024 0 11.264-9.216 20.48-20.48 20.48 0 0 0 0-1.024 0h-65.536v348.16c0 0 0 0 0 1.024 0 11.264-9.216 19.456-20.48 19.456 0 0 0 0-1.024 0h-210.944c0 0-1.024 0-1.024 0-11.264 0-20.48-8.192-20.48-19.456 0-1.024 0-1.024 0-1.024v-106.496c0 0 0-1.024 0-1.024 0-11.264 9.216-20.48 20.48-20.48 0 0 1.024 0 1.024 0h63.488v-212.992h-63.488c0 0-1.024 0-1.024 0-11.264 0-20.48-9.216-20.48-20.48 0 0 0-1.024 0-1.024v-106.496c0 0 0 0 0-1.024 0-11.264 9.216-20.48 20.48-20.48 0 0 1.024 1.024 1.024 1.024h297.984c1.024 0 1.024-1.024 1.024-1.024 11.264 0 20.48 9.216 20.48 20.48 0 1.024 0 1.024 0 1.024zM595.968 608v106.496c0 0 0 1.024 0 1.024 0 11.264-9.216 20.48-20.48 20.48 0 0 0 0-1.024 0h-125.952c0 0-1.024 0-1.024 0-11.264 0-20.48-9.216-20.48-20.48 0 0 0-1.024 0-1.024v-106.496c0 0 0 0 0-1.024 0-11.264 9.216-19.456 20.48-19.456 0 0 1.024 0 1.024 0h126.976c0 0 0 0 0 0 11.264 0 20.48 8.192 20.48 19.456 0 1.024 0 1.024 0 1.024z" />
<glyph unicode="&#xe920;" glyph-name="radio" data-tags="radio" d="M512-181.504c-282.624 0-512 229.376-512 512s229.376 512 512 512c282.624 0 512-229.376 512-512s-229.376-512-512-512zM512 752.384c-233.472 0-421.888-188.416-421.888-421.888s188.416-421.888 421.888-421.888c233.472 0 421.888 189.44 421.888 421.888s-188.416 421.888-421.888 421.888zM723.968 330.496c0-116.736-95.232-210.944-211.968-210.944s-211.968 94.208-211.968 210.944c0 116.736 95.232 211.968 211.968 211.968s211.968-95.232 211.968-211.968z" />
<glyph unicode="&#xe921;" glyph-name="check" data-tags="check" d="M903.168-203.008h-782.336c-77.824 0-140.288 62.464-140.288 140.288v786.432c0 77.824 62.464 140.288 140.288 140.288h782.336c77.824 0 140.288-62.464 140.288-140.288v-786.432c0-77.824-62.464-140.288-140.288-140.288zM120.832 770.816c-25.6 0-46.080-21.504-46.080-47.104v-786.432c0-25.6 20.48-46.080 46.080-46.080h782.336c25.6 0 46.080 20.48 46.080 46.080v786.432c0 25.6-20.48 47.104-46.080 47.104zM865.28 468.736c0 0 0 0 0 0 0-11.264-5.12-21.504-12.288-28.672l-375.808-375.808c-7.168-7.168-18.432-12.288-29.696-12.288s-21.504 5.12-29.696 12.288l-59.392 59.392-159.744 158.72c-8.192 7.168-12.288 17.408-12.288 29.696s4.096 21.504 12.288 29.696l59.392 59.392c7.168 7.168 17.408 11.264 29.696 11.264s21.504-4.096 29.696-11.264l128-129.024 285.696 286.72c7.168 7.168 18.432 12.288 29.696 12.288s22.528-5.12 29.696-12.288l59.392-59.392c9.216-7.168 14.336-18.432 15.36-29.696z" />
<glyph unicode="&#xe922;" glyph-name="radio-empty" data-tags="radio-empty" d="M512-181.504c-282.624 0-512 229.376-512 512s229.376 512 512 512c282.624 0 512-229.376 512-512s-229.376-512-512-512zM512 752.384c-233.472 0-421.888-188.416-421.888-421.888s188.416-421.888 421.888-421.888c233.472 0 421.888 189.44 421.888 421.888s-188.416 421.888-421.888 421.888z" />
<glyph unicode="&#xe923;" glyph-name="check-empty" data-tags="check-empty" d="M887.808-181.504h-751.616c-73.728 0-134.144 60.416-134.144 134.144v755.712c0 73.728 60.416 134.144 134.144 134.144h751.616c73.728 0 134.144-60.416 134.144-134.144v-755.712c0-73.728-60.416-134.144-134.144-134.144zM136.192 752.384c-24.576 0-44.032-19.456-44.032-44.032v-755.712c0-24.576 19.456-44.032 44.032-44.032h751.616c24.576 0 44.032 19.456 44.032 44.032v755.712c0 24.576-19.456 44.032-44.032 44.032z" />
<glyph unicode="&#xe924;" glyph-name="arrow-line" data-tags="arrow-line" d="M996.352 583.424l-44.032 44.032c-17.408 16.384-40.96 26.624-67.584 26.624s-50.176-10.24-67.584-26.624l-303.104-304.128-306.176 305.152c-17.408 16.384-40.96 26.624-67.584 26.624s-50.176-10.24-67.584-26.624l-44.032-45.056c-17.408-17.408-28.672-40.96-28.672-67.584s11.264-50.176 28.672-67.584l413.696-414.72c17.408-16.384 40.96-27.648 67.584-27.648s50.176 11.264 67.584 27.648l418.816 414.72c17.408 17.408 27.648 40.96 27.648 67.584s-10.24 50.176-27.648 67.584z" />
<glyph unicode="&#xe925;" glyph-name="accordion-arrow" data-tags="accordion-arrow" d="M781.312 285.44l-448.512-447.488c-11.264-12.288-27.648-19.456-45.056-19.456-34.816 1.024-63.488 28.672-63.488 63.488v897.024c0 34.816 28.672 63.488 63.488 63.488 17.408 0 33.792-7.168 45.056-18.432l448.512-448.512c11.264-11.264 18.432-27.648 18.432-45.056s-7.168-32.768-18.432-45.056z" />
<glyph unicode="&#xe926;" glyph-name="search1" data-tags="search1" d="M944.128-181.504c0 0 0 0 0 0-21.504 0-40.96 9.216-55.296 22.528l-210.944 214.016c-67.584-47.104-152.576-75.776-244.736-75.776-238.592 0-431.104 193.536-431.104 432.128s192.512 431.104 431.104 431.104c238.592 0 432.128-193.536 432.128-431.104 0-92.16-28.672-177.152-76.8-246.784l211.968-208.896c13.312-14.336 21.504-33.792 21.504-55.296 0-44.032-34.816-78.848-77.824-78.848zM432.128 683.776c-151.552 0-274.432-122.88-274.432-274.432s122.88-275.456 274.432-275.456c152.576 0 275.456 122.88 275.456 275.456s-122.88 274.432-275.456 274.432z" />
<glyph unicode="&#xe927;" glyph-name="scrollbar-bars-icon" data-tags="scrollbar-bars-icon" d="M865.28 689.92c0-29.696-12.288-52.224-28.672-52.224h-649.216c-16.384 0-28.672 22.528-28.672 52.224v101.376c0 28.672 12.288 51.2 28.672 51.2h644.096c17.408 0 28.672-22.528 28.672-51.2zM865.28 281.344c0-28.672-12.288-52.224-28.672-52.224h-649.216c-16.384 0-28.672 23.552-28.672 52.224v101.376c0 28.672 12.288 51.2 28.672 51.2h644.096c17.408 0 28.672-22.528 28.672-51.2zM865.28-130.304c0-28.672-12.288-51.2-28.672-51.2h-649.216c-16.384 0-28.672 22.528-28.672 51.2v102.4c0 28.672 12.288 51.2 28.672 51.2h644.096c17.408 0 28.672-22.528 28.672-51.2z" />
<glyph unicode="&#xe928;" glyph-name="loading-search" data-tags="loading-search" d="M515.072-163.072c-274.432 0-496.64 222.208-496.64 496.64 0 248.832 184.32 454.656 422.912 490.496v-131.072c-167.936-33.792-293.888-182.272-293.888-359.424 0-202.752 164.864-367.616 367.616-367.616s366.592 164.864 366.592 367.616c0 177.152-125.952 325.632-293.888 359.424v131.072c238.592-35.84 422.912-241.664 422.912-490.496 0-274.432-222.208-496.64-495.616-496.64z" />
<glyph unicode="&#xe929;" glyph-name="interactive-video" data-tags="interactive-video" d="M731.136 343.808l-332.8 201.728c-30.72 17.408-67.584-4.096-67.584-38.912v-394.24c0-34.816 36.864-56.32 67.584-39.936l332.8 191.488c30.72 17.408 30.72 62.464 0 79.872zM980.992 308.992c0 260.096-209.92 470.016-468.992 470.016s-468.992-209.92-468.992-470.016 209.92-468.992 468.992-468.992 468.992 209.92 468.992 468.992zM133.12 308.992c0 209.92 169.984 378.88 378.88 378.88s378.88-168.96 378.88-378.88-169.984-377.856-378.88-377.856-378.88 168.96-378.88 377.856z" />
<glyph unicode="&#xe92a;" glyph-name="audio" data-tags="audio" d="M395.264 604.928l-142.336-142.336h-162.816c-21.504 0-38.912-16.384-38.912-37.888v-230.4c0-21.504 17.408-38.912 38.912-38.912h162.816l142.336-142.336c24.576-23.552 65.536-7.168 65.536 27.648v537.6c0 33.792-41.984 51.2-65.536 26.624zM769.024 686.848c-18.432 12.288-41.984 7.168-54.272-11.264-11.264-17.408-6.144-41.984 11.264-53.248 106.496-69.632 168.96-186.368 168.96-313.344s-62.464-242.688-168.96-312.32c-17.408-12.288-22.528-35.84-11.264-54.272 11.264-16.384 35.84-22.528 54.272-11.264 126.976 84.992 203.776 225.28 203.776 377.856s-76.8 293.888-203.776 377.856zM819.2 308.992c0 102.4-51.2 195.584-137.216 250.88-17.408 11.264-41.984 5.12-53.248-12.288s-6.144-41.984 12.288-53.248c63.488-40.96 101.376-109.568 101.376-185.344s-37.888-143.36-101.376-184.32c-18.432-11.264-23.552-34.816-12.288-53.248 10.24-16.384 33.792-24.576 53.248-12.288 86.016 55.296 137.216 148.48 137.216 249.856zM592.896 432.896c-19.456 9.216-41.984 3.072-52.224-15.36s-4.096-41.984 14.336-52.224c21.504-11.264 33.792-32.768 33.792-56.32 0-22.528-12.288-44.032-33.792-55.296-18.432-10.24-24.576-33.792-14.336-52.224s32.768-25.6 52.224-15.36c45.056 25.6 72.704 72.704 72.704 122.88s-27.648 98.304-72.704 123.904z" />
<glyph unicode="&#xe92b;" glyph-name="true-false" data-tags="true-false" d="M432.128 602.88l-221.184-228.352c-7.168-8.192-22.528-8.192-37.888 0l-30.72 29.696-82.944 99.328c-8.192 7.168-8.192 22.528 0 37.888l29.696 30.72c8.192 7.168 23.552 7.168 38.912 0l75.776-75.776 167.936 175.104c14.336 7.168 29.696 7.168 37.888 0l29.696-30.72c8.192-8.192 8.192-15.36 8.192-22.528 0 0-8.192-8.192-15.36-15.36v0zM964.608-21.76l-29.696-30.72c-8.192-7.168-23.552-7.168-30.72 0 0 0 0 0 0 0l-68.608 68.608-68.608-68.608c-7.168-7.168-22.528-7.168-30.72 0 0 0 0 0 0 0l-29.696 30.72c-8.192 7.168-8.192 22.528 0 30.72l68.608 68.608-68.608 68.608c-8.192 7.168-8.192 22.528 0 29.696l29.696 30.72c8.192 7.168 23.552 7.168 30.72 0 0 0 0 0 0 0l68.608-68.608 68.608 68.608c7.168 7.168 22.528 7.168 30.72 0 0 0 0 0 0 0l29.696-30.72c8.192-7.168 8.192-22.528 0-29.696l-67.584-68.608 67.584-68.608c8.192 0 8.192-15.36 0-30.72v0zM782.336 640.768l-571.392-593.92c-15.36-15.36-15.36-37.888 0-53.248v0c15.36-15.36 38.912-15.36 53.248 0l571.392 593.92c15.36 15.36 15.36 37.888 0 53.248v0c-15.36 15.36-37.888 15.36-53.248 0z" />
<glyph unicode="&#xe92c;" glyph-name="dialog-cards" data-tags="dialog-cards" d="M883.712 632.576l-394.24 143.36c-27.648 9.216-57.344-5.12-67.584-32.768l-19.456-53.248h182.272c49.152 0 89.088-39.936 89.088-88.064v-702.464c0 0 1.024 1.024 1.024 2.048l240.64 662.528c10.24 27.648-4.096 58.368-31.744 68.608zM630.784 598.784c0 29.696-23.552 53.248-53.248 53.248h-418.816c-28.672 0-53.248-23.552-53.248-53.248v-705.536c0-29.696 24.576-53.248 53.248-53.248h418.816c29.696 0 53.248 23.552 53.248 53.248v705.536zM258.048 172.8c-4.096-1.024-9.216-3.072-14.336-3.072 0 0-1.024 0-1.024 0-2.048 0-5.12 2.048-5.12 5.12-1.024 3.072 1.024 5.12 3.072 7.168 7.168 8.192 14.336 14.336 20.48 28.672-27.648 16.384-45.056 40.96-45.056 68.608 0 47.104 53.248 86.016 118.784 86.016s119.808-38.912 119.808-86.016c0-48.128-53.248-87.040-119.808-87.040-10.24 0-20.48 1.024-29.696 2.048-14.336-10.24-29.696-17.408-47.104-21.504zM494.592 139.008c2.048-2.048 4.096-4.096 4.096-7.168-1.024-3.072-3.072-5.12-6.144-5.12-5.12 1.024-10.24 1.024-14.336 3.072-17.408 4.096-33.792 11.264-48.128 21.504-9.216-2.048-19.456-3.072-29.696-3.072-30.72 0-58.368 8.192-79.872 22.528 5.12 0 10.24-1.024 14.336-1.024 36.864 0 71.68 11.264 98.304 29.696 27.648 20.48 44.032 49.152 44.032 79.872 0 8.192-2.048 17.408-4.096 25.6 28.672-16.384 47.104-40.96 47.104-69.632 0-27.648-17.408-52.224-45.056-67.584 5.12-14.336 13.312-21.504 19.456-28.672z" />
<glyph unicode="&#xe92d;" glyph-name="questionnaire" data-tags="questionnaire" d="M963.584 638.72l-52.224 52.224c-7.168 7.168-16.384 11.264-26.624 11.264-9.216 0-18.432-4.096-25.6-11.264l-250.88-250.88-112.64 112.64c-7.168 7.168-16.384 10.24-26.624 10.24s-18.432-3.072-25.6-10.24l-52.224-52.224c-7.168-7.168-11.264-16.384-11.264-25.6s4.096-19.456 11.264-26.624l190.464-190.464c7.168-7.168 16.384-11.264 26.624-11.264s18.432 4.096 25.6 11.264l329.728 329.728c6.144 6.144 10.24 16.384 10.24 25.6s-4.096 19.456-10.24 25.6zM600.064 151.296v-123.904h-439.296v439.296h113.664c-4.096 15.36-7.168 30.72-7.168 46.080 0 22.528 5.12 44.032 12.288 64.512h-229.376v-660.48h660.48v249.856c-24.576-12.288-51.2-18.432-77.824-18.432-11.264 0-21.504 1.024-32.768 3.072z" />
<glyph unicode="&#xe92e;" glyph-name="course-presentation" data-tags="course-presentation" d="M889.856 678.656h-755.712c-43.008 0-80.896-37.888-80.896-80.896v-505.856c0-43.008 37.888-80.896 80.896-80.896h211.968v-70.656h331.776v70.656h211.968c43.008 0 80.896 37.888 80.896 80.896v505.856c0 43.008-32.768 80.896-80.896 80.896zM889.856 91.904h-755.712v499.712h755.712v-499.712z" />
<glyph unicode="&#xe92f;" glyph-name="interactive-content" data-tags="interactive-content" d="M194.56 374.528c0 166.912 136.192 302.080 302.080 302.080s302.080-135.168 302.080-302.080c0-19.456-1.024-39.936-5.12-59.392 36.864-3.072 71.68-12.288 98.304-24.576 6.144 27.648 9.216 55.296 9.216 83.968 1.024 222.208-180.224 404.48-404.48 404.48-221.184 0-403.456-182.272-403.456-404.48s182.272-403.456 403.456-403.456c2.048 0 5.12 0 6.144 0l-43.008 104.448c-148.48 17.408-265.216 143.36-265.216 299.008zM434.176 510.72c72.704 30.72 158.72-4.096 188.416-77.824l54.272-131.072c12.288 3.072 24.576 6.144 36.864 7.168 6.144 20.48 9.216 40.96 9.216 63.488 0 124.928-101.376 226.304-226.304 226.304s-226.304-100.352-226.304-225.28c0-98.304 63.488-183.296 152.576-212.992l-68.608 161.792c-27.648 74.752 7.168 159.744 79.872 188.416zM894.976 213.76c-15.36 19.456-36.864 36.864-55.296 34.816-6.144-1.024-10.24-4.096-15.36-3.072-11.264 2.048-19.456 10.24-32.768 12.288-12.288 1.024-21.504-8.192-31.744-8.192s-20.48 9.216-35.84 8.192c-13.312-2.048-24.576-12.288-35.84-13.312s-22.528 5.12-35.84 2.048c-15.36-5.12-28.672-12.288-35.84-21.504-14.336 24.576-105.472 185.344-137.216 184.32-52.224-3.072-43.008-67.584-30.72-101.376 0 0 114.688-258.048 122.88-280.576 19.456-51.2 12.288-84.992 12.288-84.992s-92.16 0-121.856-20.48c-12.288-7.168-18.432-13.312-20.48-24.576-5.12-22.528 2.048-44.032 22.528-55.296 0 0 246.784-15.36 354.304 32.768 53.248 24.576 80.896 75.776 92.16 137.216 20.48 83.968 38.912 146.432-15.36 201.728z" />
<glyph unicode="&#xe930;" glyph-name="enterfullscreen" data-tags="enterfullscreen" d="M105.472-106.752h93.184l300.032 300.032c7.168 6.144 7.168 13.312 0 19.456l-99.328 93.184c-7.168 7.168-13.312 7.168-20.48 0l-260.096-266.24-59.392-60.416 46.080-86.016zM226.304 26.368l-160.768 159.744c-13.312 7.168-19.456 0-19.456-13.312v-319.488c0-7.168 0-13.312 6.144-13.312h326.656c7.168 0 13.312 13.312 7.168 19.456l-160.768 166.912zM838.656 652.032h-93.184l-33.792-32.768-179.2-186.368c-7.168-7.168-7.168-13.312 0-20.48l93.184-93.184c6.144-6.144 13.312-6.144 19.456 0l180.224 186.368 59.392 60.416-46.080 86.016zM798.72 598.784l159.744-159.744c13.312-6.144 19.456 0 19.456 7.168v325.632c0 7.168 0 7.168-6.144 7.168h-326.656c-6.144 0-13.312-7.168-6.144-13.312l159.744-166.912z" />
<glyph unicode="&#xe931;" glyph-name="exit-full-screen" data-tags="exit-full-screen" d="M390.144 204.544h-81.92l-261.12-261.12c-6.144-6.144-6.144-12.288 0-17.408l80.896-81.92c6.144-5.12 12.288-5.12 17.408 0l227.328 232.448 52.224 52.224-34.816 75.776zM285.696 88.832l139.264-140.288c6.144-5.12 17.408 0 17.408 6.144v284.672c0 6.144-6.144 12.288-11.264 12.288h-279.552c-6.144 0-11.264-12.288-6.144-17.408l140.288-145.408zM703.488 477.952h81.92l191.488 191.488c6.144 6.144 6.144 12.288 0 17.408l-80.896 87.040c-6.144 6.144-12.288 6.144-17.408 0l-157.696-161.792-57.344-58.368 39.936-75.776zM738.304 530.176l-139.264 139.264c-5.12 6.144-17.408 0-17.408-11.264v-279.552c0-5.12 6.144-11.264 12.288-11.264h278.528c6.144 0 11.264 11.264 6.144 17.408l-140.288 145.408z" />
<glyph unicode="&#xe932;" glyph-name="add" data-tags="add" d="M1024 222.976c0-15.36-5.12-28.672-16.384-38.912s-23.552-16.384-38.912-16.384h-315.392v-315.392c0-15.36-5.12-28.672-15.36-38.912s-23.552-16.384-38.912-16.384h-174.080c-15.36 0-27.648 5.12-38.912 16.384s-15.36 23.552-15.36 38.912v315.392h-315.392c-15.36 0-28.672 5.12-38.912 16.384s-16.384 23.552-16.384 38.912v173.056c0 15.36 5.12 28.672 16.384 38.912s23.552 16.384 38.912 16.384h315.392v315.392c0 15.36 5.12 27.648 15.36 38.912s23.552 15.36 38.912 15.36h174.080c15.36 0 27.648-5.12 38.912-15.36s15.36-23.552 15.36-38.912v-315.392h315.392c15.36 0 28.672-5.12 38.912-16.384s16.384-23.552 16.384-38.912v-173.056z" />
<glyph unicode="&#xe933;" glyph-name="check1" data-tags="check1" d="M398.336 247.552l-231.424 230.4-166.912-166.912 398.336-398.336 625.664 625.664-166.912 167.936z" />
<glyph unicode="&#xe934;" glyph-name="delete1" data-tags="delete1" d="M874.496 671.488c65.536-64.512 109.568-141.312 132.096-229.376s23.552-177.152 0-265.216c-22.528-88.064-66.56-164.864-132.096-230.4s-142.336-109.568-230.4-132.096c-88.064-22.528-176.128-22.528-264.192 0s-164.864 66.56-230.4 132.096c-65.536 65.536-109.568 142.336-132.096 230.4s-23.552 176.128 0 265.216c22.528 88.064 66.56 164.864 132.096 229.376s142.336 109.568 230.4 133.12c88.064 22.528 176.128 22.528 264.192 0 89.088-23.552 164.864-67.584 230.4-133.12zM681.984 58.112l81.92 81.92c4.096 4.096 7.168 10.24 7.168 17.408s-3.072 12.288-7.168 17.408l-135.168 134.144 135.168 134.144c4.096 5.12 7.168 11.264 7.168 17.408s-3.072 13.312-7.168 18.432l-81.92 80.896c-5.12 5.12-11.264 7.168-17.408 7.168s-13.312-2.048-17.408-7.168l-135.168-134.144-134.144 134.144c-5.12 5.12-10.24 7.168-17.408 7.168s-12.288-2.048-17.408-7.168l-81.92-80.896c-5.12-5.12-7.168-11.264-7.168-18.432s2.048-12.288 7.168-17.408l134.144-134.144-134.144-134.144c-5.12-5.12-7.168-11.264-7.168-17.408s2.048-13.312 7.168-17.408l81.92-81.92c5.12-5.12 10.24-7.168 17.408-7.168s12.288 2.048 17.408 7.168l134.144 134.144 135.168-134.144c4.096-5.12 10.24-7.168 17.408-7.168s12.288 2.048 17.408 7.168z" />
<glyph unicode="&#xe935;" glyph-name="metadata" data-tags="metadata" d="M401.408 256.768c-2.048 0-4.096 1.024-6.144 0-1.024 0-4.096-1.024-7.168-1.024s-5.12-2.048-8.192-2.048c-2.048 0-4.096 1.024-8.192 2.048-3.072 2.048-7.168 4.096-11.264 7.168s-9.216 4.096-10.24 5.12c-1.024 1.024-4.096 2.048-7.168 4.096-4.096 2.048-6.144 3.072-8.192 4.096s-5.12 3.072-7.168 5.12c-2.048 3.072-4.096 5.12-5.12 8.192 0 2.048-1.024 6.144-2.048 12.288-1.024 7.168-3.072 11.264-5.12 14.336-2.048 4.096-5.12 7.168-9.216 11.264s-7.168 5.12-10.24 5.12c3.072 0 3.072 2.048 0 7.168s-6.144 8.192-8.192 10.24c0 1.024-3.072 3.072-6.144 7.168-4.096 4.096-7.168 7.168-9.216 10.24s-5.12 7.168-6.144 10.24c-2.048 4.096-3.072 7.168-1.024 9.216 0 1.024 0 1.024-2.048 2.048s-2.048 1.024-4.096 2.048c-1.024 1.024-3.072 1.024-4.096 2.048s-3.072 1.024-3.072 1.024c0-2.048 1.024-4.096 2.048-8.192s2.048-7.168 3.072-8.192c1.024-2.048 4.096-7.168 9.216-16.384 9.216-15.36 13.312-26.624 13.312-33.792-2.048 0-4.096 0-5.12 2.048s-1.024 3.072-1.024 5.12c-1.024 3.072-1.024 5.12-1.024 6.144-1.024 2.048-4.096 4.096-9.216 6.144s-7.168 5.12-8.192 8.192c1.024 0 1.024 0 1.024 0s1.024 1.024 2.048 1.024c0 3.072-2.048 7.168-6.144 12.288s-6.144 9.216-5.12 11.264c-3.072 2.048-5.12 6.144-7.168 12.288s-4.096 10.24-6.144 12.288c-1.024 2.048-3.072 4.096-5.12 6.144s-5.12 3.072-8.192 5.12c-3.072 2.048-5.12 3.072-6.144 4.096-1.024 0-2.048 2.048-4.096 5.12-12.288 14.336-16.384 21.504-11.264 22.528-5.12-1.024-9.216 3.072-11.264 11.264-3.072 8.192-4.096 14.336-3.072 18.432h-1.024c0 2.048 0 6.144 0 13.312s1.024 13.312 1.024 19.456c1.024 5.12 3.072 8.192 5.12 8.192-2.048 0-4.096 2.048-5.12 7.168-1.024 4.096-1.024 8.192 0 9.216 0 2.048 2.048 1.024 4.096-2.048 3.072-2.048 5.12-4.096 5.12-4.096 5.12 2.048 6.144 5.12 5.12 9.216 0 2.048-4.096 5.12-11.264 11.264-15.36 10.24-23.552 15.36-23.552 15.36 2.048 4.096 1.024 7.168-2.048 10.24-3.072-2.048-5.12-3.072-6.144-2.048s-1.024 3.072-1.024 6.144c-1.024 3.072-1.024 4.096-3.072 5.12-2.048 0-4.096 1.024-6.144 4.096 31.744 51.2 74.752 91.136 126.976 120.832 3.072 0 6.144 0 12.288 0 3.072 0 6.144-1.024 8.192-3.072s5.12-3.072 8.192-5.12c3.072-3.072 5.12-5.12 6.144-6.144 1.024 3.072 0 6.144-3.072 10.24 1.024 2.048 5.12 4.096 12.288 6.144 8.192 1.024 13.312 1.024 16.384 0-2.048 3.072-6.144 7.168-11.264 13.312l-2.048-3.072c-3.072 3.072-11.264 2.048-23.552-4.096 0 0-2.048-1.024-5.12-2.048-3.072-2.048-5.12-3.072-7.168-4.096s-4.096-1.024-6.144 0c17.408 9.216 34.816 16.384 51.2 21.504 1.024 0 3.072-2.048 5.12-4.096 3.072-2.048 4.096-4.096 6.144-5.12-1.024 1.024-2.048 0-2.048-1.024-2.048-5.12-2.048-8.192 0-11.264 1.024-2.048 4.096-4.096 7.168-4.096s6.144 0 11.264 0c4.096 1.024 7.168 1.024 8.192 1.024h5.12c12.288-1.024 16.384 0 14.336 3.072 1.024-1.024 2.048-4.096 3.072-9.216s3.072-7.168 5.12-9.216c2.048 2.048 2.048 4.096 1.024 8.192-1.024 3.072-1.024 5.12 0 7.168 0 1.024 2.048 1.024 3.072 2.048s4.096 2.048 6.144 2.048c3.072 1.024 4.096 2.048 5.12 2.048 2.048 2.048 1.024 4.096-4.096 8.192-1.024 0-3.072 1.024-5.12 1.024s-4.096 2.048-6.144 2.048c-2.048 1.024-4.096 2.048-6.144 3.072s-2.048 3.072-2.048 5.12c0 1.024 1.024 3.072 3.072 6.144 2.048 2.048 5.12 2.048 10.24 2.048s8.192-1.024 11.264-3.072c9.216-5.12 11.264-10.24 4.096-14.336 4.096 0 8.192-2.048 13.312-4.096 5.12-3.072 7.168-5.12 6.144-8.192 2.048 5.12 5.12 8.192 8.192 8.192 2.048-1.024 3.072-3.072 5.12-8.192s3.072-6.144 3.072-7.168c3.072-4.096 6.144-4.096 8.192-3.072 3.072 3.072 6.144 6.144 9.216 10.24s5.12 6.144 5.12 5.12c-3.072 2.048-4.096 3.072-1.024 5.12 6.144 3.072 10.24 4.096 15.36 2.048 1.024 0 2.048-2.048 4.096-4.096 3.072-7.168 3.072-10.24-2.048-9.216 3.072-3.072 5.12-7.168 4.096-11.264s-3.072-6.144-8.192-6.144c-2.048 0-4.096 1.024-8.192 3.072s-6.144 3.072-8.192 3.072c-1.024 0-4.096-1.024-7.168-3.072-1.024-2.048-3.072-5.12-6.144-9.216s-4.096-7.168-6.144-9.216c-5.12-5.12-14.336-7.168-26.624-6.144 1.024 0 1.024-1.024 0-3.072-2.048-2.048-3.072-5.12-5.12-7.168s-4.096-5.12-4.096-5.12c-4.096-3.072-5.12-7.168-7.168-12.288 0-1.024 0-3.072 0-7.168s-1.024-8.192-2.048-10.24c4.096 2.048 7.168-1.024 10.24-6.144 2.048-5.12 2.048-7.168 0-8.192 12.288 2.048 22.528 1.024 31.744-2.048 12.288-4.096 20.48-9.216 21.504-14.336 3.072 4.096 8.192 4.096 16.384 1.024 3.072-2.048 6.144-7.168 8.192-16.384 2.048-5.12 4.096-10.24 8.192-14.336 3.072-4.096 7.168-5.12 10.24-3.072l2.048 1.024c1.024 1.024 2.048 1.024 3.072 2.048s2.048 1.024 3.072 2.048c1.024 1.024 2.048 2.048 2.048 2.048s0 2.048-1.024 3.072c-2.048 2.048-4.096 5.12-5.12 8.192s-1.024 7.168 0 10.24c2.048 2.048 4.096 4.096 9.216 6.144 4.096 3.072 7.168 6.144 8.192 9.216 2.048 4.096 0 8.192-5.12 11.264s-7.168 6.144-7.168 9.216c0 1.024 1.024 4.096 3.072 6.144 3.072 2.048 3.072 5.12 3.072 7.168 0 1.024 0 3.072-2.048 6.144s-2.048 6.144-2.048 8.192c0 1.024 1.024 3.072 3.072 5.12s8.192 2.048 17.408 0c9.216-1.024 15.36-3.072 18.432-5.12 1.024-1.024 3.072-2.048 7.168-3.072s7.168-3.072 9.216-5.12c3.072-1.024 4.096-3.072 5.12-4.096h-3.072c2.048-2.048 4.096-5.12 4.096-7.168s0-5.12-4.096-7.168c3.072 1.024 5.12 0 9.216-1.024 6.144-3.072 6.144-5.12 0-6.144 2.048 0 3.072 1.024 5.12 1.024s3.072 1.024 4.096 2.048c1.024 0 2.048 0 3.072 1.024s2.048 2.048 3.072 2.048c0 0 1.024 0 2.048 1.024s2.048-1.024 3.072-1.024c0 0 1.024 1.024 2.048 3.072s3.072 3.072 4.096 5.12c2.048 2.048 3.072 2.048 4.096 2.048s2.048 0 3.072-1.024c1.024-1.024 2.048-2.048 2.048-3.072s1.024-2.048 2.048-3.072c0-1.024 1.024-2.048 1.024-3.072 1.024-2.048 2.048-4.096 5.12-6.144s5.12-3.072 5.12-5.12c1.024-1.024 1.024-4.096 2.048-8.192 2.048-4.096 3.072-7.168 5.12-9.216s4.096-3.072 8.192-4.096c0 0 2.048 0 4.096 1.024 3.072 0 5.12 0 7.168 0s2.048-2.048 2.048-4.096c2.048 2.048 3.072 3.072 3.072 4.096 0-4.096 2.048-8.192 4.096-11.264s5.12-4.096 9.216-4.096l-1.024-12.288c-1.024-1.024-4.096-3.072-8.192-4.096-5.12 0-7.168-1.024-8.192-2.048-1.024 0-4.096-2.048-8.192-6.144s-6.144-6.144-5.12-7.168c-6.144 7.168-15.36 9.216-27.648 6.144-14.336-2.048-23.552-5.12-28.672-7.168s-9.216-5.12-11.264-8.192c-1.024 0-1.024-1.024-2.048-3.072s-2.048-4.096-3.072-6.144c-1.024-2.048-2.048-3.072-2.048-3.072 2.048 1.024 4.096 2.048 7.168 5.12s4.096 5.12 5.12 5.12c9.216 6.144 17.408 8.192 23.552 7.168 7.168-3.072 9.216-5.12 4.096-9.216-1.024-1.024-3.072-1.024-6.144-1.024s-5.12 0-6.144 0c3.072 0 6.144-1.024 8.192-3.072s2.048-3.072 1.024-5.12c6.144-3.072 7.168-6.144 4.096-10.24-5.12-5.12-11.264-7.168-17.408-6.144 1.024 0 1.024-1.024 0-2.048l-9.216-6.144c-1.024 0-3.072-1.024-7.168-3.072-4.096-1.024-6.144-3.072-8.192-4.096-1.024-2.048-1.024-4.096-1.024-7.168s0-5.12-1.024-6.144-2.048-2.048-4.096-1.024c-1.024-2.048-4.096-4.096-10.24-5.12s-9.216-3.072-11.264-6.144c2.048-3.072 2.048-5.12 0-8.192-5.12-4.096-8.192-4.096-11.264 1.024-2.048-1.024-3.072-3.072-4.096-5.12-1.024-3.072-3.072-5.12-4.096-6.144 2.048-4.096 2.048-7.168-1.024-9.216 0 0 1.024 0 2.048-1.024s2.048-1.024 4.096-2.048c1.024-2.048 2.048-2.048 3.072-2.048-2.048-3.072-4.096-5.12-6.144-5.12 2.048-5.12-1.024-12.288-8.192-18.432-2.048-2.048-4.096-3.072-7.168-5.12s-6.144-2.048-8.192-3.072c-3.072-1.024-4.096-2.048-4.096-2.048-4.096-3.072-7.168-6.144-8.192-10.24-2.048-3.072-2.048-6.144-1.024-9.216 1.024-4.096 4.096-6.144 10.24-7.168v-3.072c65.536 49.152 146.432 77.824 233.472 77.824 41.984 0 81.92-6.144 118.784-17.408-4.096 64.512-22.528 124.928-55.296 180.224-36.864 64.512-88.064 114.688-151.552 152.576s-134.144 55.296-209.92 55.296c-75.776 0-145.408-18.432-208.896-55.296s-114.688-88.064-151.552-152.576c-37.888-63.488-56.32-133.12-56.32-208.896s18.432-145.408 56.32-208.896 88.064-114.688 151.552-152.576c38.912-22.528 80.896-37.888 123.904-47.104-3.072 21.504-5.12 44.032-5.12 66.56 1.024 70.656 20.48 137.216 53.248 194.56zM480.256 375.552c-2.048-2.048-3.072-3.072-4.096-4.096s-2.048 0-3.072 0c-1.024 1.024-1.024 1.024-3.072 3.072s-3.072 2.048-4.096 2.048c-1.024 1.024-5.12 2.048-9.216 3.072s-7.168 2.048-8.192 3.072c-9.216-7.168-14.336-5.12-16.384 5.12 0-2.048 0-5.12 1.024-8.192s1.024-4.096 1.024-5.12c-3.072-4.096-6.144-5.12-12.288-1.024-2.048 2.048-7.168 2.048-14.336 1.024-8.192-2.048-13.312-2.048-15.36-1.024 0 0 1.024-1.024 2.048-1.024 1.024-1.024 1.024-2.048 2.048-2.048-1.024-2.048-1.024-3.072-2.048-3.072s-1.024-1.024-2.048-1.024c-1.024 0-1.024 0-2.048 0s-2.048 0-3.072-1.024c-1.024-1.024-3.072-3.072-5.12-5.12s-4.096-5.12-5.12-5.12c3.072-6.144 3.072-10.24 3.072-13.312s0-8.192-1.024-14.336c-1.024-5.12-2.048-10.24-2.048-14.336 0-5.12 2.048-12.288 5.12-19.456s8.192-13.312 12.288-16.384c3.072-1.024 7.168-2.048 13.312-2.048 2.048-1.024 4.096-1.024 6.144-1.024 20.48 31.744 45.056 60.416 73.728 84.992 0 1.024 0 2.048 0 3.072-1.024 4.096-3.072 8.192-7.168 13.312zM392.192 373.504c0 0 0 0 0 0s0 0 0 0zM965.632 193.28c23.552-39.936 35.84-83.968 35.84-132.096s-12.288-91.136-35.84-132.096c-22.528-39.936-55.296-71.68-95.232-96.256-40.96-22.528-84.992-34.816-132.096-34.816s-92.16 12.288-132.096 34.816c-40.96 23.552-72.704 56.32-96.256 96.256s-35.84 84.992-35.84 132.096 12.288 92.16 35.84 132.096c23.552 40.96 55.296 72.704 96.256 96.256 39.936 23.552 83.968 35.84 132.096 35.84s91.136-12.288 132.096-35.84c39.936-23.552 72.704-55.296 95.232-96.256zM826.368-102.656v54.272c0 3.072-2.048 6.144-4.096 8.192s-4.096 3.072-7.168 3.072h-32.768v175.104c0 3.072-1.024 6.144-3.072 8.192s-5.12 3.072-8.192 3.072h-109.568c-3.072 0-6.144-1.024-8.192-3.072s-3.072-4.096-3.072-8.192v-54.272c0-3.072 1.024-6.144 3.072-8.192s5.12-3.072 8.192-3.072h32.768v-109.568h-32.768c-3.072 0-6.144-1.024-8.192-3.072s-3.072-5.12-3.072-8.192v-54.272c0-4.096 1.024-6.144 3.072-8.192s5.12-3.072 8.192-3.072h153.6c3.072 0 6.144 1.024 8.192 3.072s3.072 4.096 3.072 8.192zM782.336 204.544v54.272c0 3.072-1.024 6.144-3.072 8.192s-5.12 3.072-8.192 3.072h-65.536c-3.072 0-6.144-1.024-8.192-3.072s-3.072-5.12-3.072-8.192v-54.272c0-3.072 1.024-6.144 3.072-8.192s4.096-3.072 8.192-3.072h65.536c3.072 0 6.144 1.024 8.192 3.072s3.072 5.12 3.072 8.192zM738.304-203.008c-48.128 0-92.16 12.288-133.12 35.84s-72.704 55.296-96.256 96.256c-23.552 39.936-34.816 84.992-34.816 133.12s11.264 92.16 34.816 132.096c23.552 39.936 56.32 72.704 96.256 96.256 40.96 23.552 84.992 35.84 133.12 35.84s92.16-12.288 132.096-35.84c40.96-23.552 72.704-55.296 96.256-96.256v0c23.552-39.936 35.84-84.992 35.84-132.096s-12.288-93.184-35.84-133.12c-23.552-39.936-55.296-72.704-96.256-96.256-39.936-23.552-84.992-35.84-132.096-35.84zM738.304 324.352c-47.104 0-92.16-12.288-132.096-35.84s-71.68-55.296-95.232-95.232c-23.552-39.936-34.816-83.968-34.816-131.072s11.264-92.16 34.816-132.096c23.552-39.936 55.296-72.704 95.232-95.232s83.968-35.84 132.096-35.84c47.104 0 91.136 12.288 131.072 35.84s72.704 55.296 96.256 95.232c22.528 39.936 34.816 83.968 34.816 132.096 0 47.104-12.288 91.136-34.816 131.072v0c-23.552 39.936-55.296 72.704-96.256 95.232-39.936 23.552-83.968 35.84-131.072 35.84zM815.104-114.944h-153.6c-4.096 0-6.144 1.024-9.216 3.072s-3.072 5.12-3.072 9.216v54.272c0 4.096 1.024 6.144 3.072 8.192s6.144 4.096 9.216 4.096h31.744v107.52h-31.744c-4.096 0-6.144 1.024-9.216 3.072s-3.072 5.12-3.072 9.216v54.272c0 4.096 1.024 6.144 3.072 9.216s6.144 3.072 9.216 3.072h109.568c3.072 0 6.144-1.024 8.192-3.072s3.072-5.12 3.072-9.216v-174.080h32.768c3.072 0 6.144-1.024 8.192-3.072s3.072-5.12 3.072-9.216v-54.272c0-4.096-1.024-6.144-3.072-9.216-2.048-2.048-5.12-3.072-8.192-3.072zM661.504-38.144c-3.072 0-5.12-1.024-7.168-3.072s-3.072-4.096-3.072-7.168v-54.272c0-3.072 1.024-6.144 3.072-8.192s4.096-2.048 7.168-2.048h153.6c3.072 0 5.12 1.024 7.168 2.048s3.072 5.12 3.072 8.192v54.272c0 3.072-1.024 5.12-3.072 7.168s-4.096 3.072-7.168 3.072h-33.792v176.128c0 3.072-1.024 6.144-3.072 7.168s-4.096 3.072-7.168 3.072h-109.568c-3.072 0-5.12-1.024-7.168-3.072s-3.072-4.096-3.072-7.168v-54.272c0-3.072 1.024-5.12 3.072-7.168s4.096-3.072 7.168-3.072h33.792v-111.616h-33.792zM771.072 192.256h-65.536c-4.096 0-6.144 1.024-9.216 3.072s-3.072 5.12-3.072 9.216v54.272c0 4.096 1.024 6.144 3.072 8.192s5.12 4.096 9.216 4.096h65.536c3.072 0 6.144-1.024 8.192-4.096s3.072-5.12 3.072-8.192v-54.272c0-4.096-1.024-7.168-3.072-9.216s-5.12-3.072-8.192-3.072zM705.536 269.056c-3.072 0-6.144-1.024-7.168-3.072s-3.072-4.096-3.072-7.168v-54.272c0-3.072 1.024-5.12 3.072-7.168s4.096-3.072 7.168-3.072h65.536c3.072 0 5.12 1.024 7.168 3.072s3.072 4.096 3.072 7.168v54.272c0 3.072-1.024 6.144-3.072 7.168s-4.096 3.072-7.168 3.072h-65.536z" />
<glyph unicode="&#xe936;" glyph-name="edit" data-tags="edit" d="M568.32 621.312c5.12 5.12 11.264 8.192 18.432 8.192s11.264-3.072 15.36-8.192l222.208-221.184c5.12-4.096 8.192-10.24 8.192-16.384s-3.072-12.288-8.192-18.432l-524.288-523.264-243.712-44.032c-15.36-3.072-29.696 2.048-41.984 14.336s-16.384 25.6-13.312 41.984l44.032 243.712 523.264 523.264zM176.128-25.856v95.232h-71.68l-23.552-126.976 63.488-64.512 128 23.552v72.704h-96.256zM248.832 142.080c5.12-5.12 12.288-8.192 19.456-8.192s15.36 3.072 20.48 8.192l307.2 307.2c5.12 5.12 8.192 12.288 8.192 20.48s-3.072 14.336-8.192 19.456c-5.12 6.144-11.264 8.192-19.456 8.192s-14.336-2.048-20.48-8.192l-307.2-307.2c-5.12-5.12-8.192-12.288-8.192-20.48s3.072-14.336 8.192-19.456zM996.352 537.344c18.432 18.432 27.648 41.984 27.648 68.608s-9.216 49.152-27.648 67.584l-119.808 119.808c-19.456 18.432-41.984 27.648-68.608 27.648s-49.152-9.216-67.584-27.648l-92.16-92.16c-5.12-5.12-8.192-11.264-8.192-17.408s3.072-12.288 8.192-16.384l222.208-221.184c4.096-6.144 9.216-8.192 15.36-8.192s13.312 2.048 18.432 8.192l92.16 91.136z" />
<glyph unicode="&#xe937;" glyph-name="details-arrow" data-tags="details-arrow" d="M512 842.496l-90.112-90.112 357.376-357.376h-779.264v-128h779.264l-357.376-358.4 90.112-90.112 512 512z" />
<glyph unicode="&#xe938;" glyph-name="check2" data-tags="check2" d="M910.336 842.496h-796.672c-62.464 0-113.664-51.2-113.664-113.664v-796.672c0-62.464 51.2-113.664 113.664-113.664h796.672c62.464 0 113.664 51.2 113.664 113.664v796.672c0 62.464-51.2 113.664-113.664 113.664zM398.336 45.824l-284.672 284.672 79.872 79.872 204.8-204.8 432.128 432.128 79.872-79.872-512-512z" />
<glyph unicode="&#xe939;" glyph-name="plus1" data-tags="plus1" d="M596.992 416.512v425.984h-169.984v-425.984h-427.008v-171.008h427.008v-427.008h169.984v427.008h427.008v171.008z" />
<glyph unicode="&#xe93a;" glyph-name="close1" data-tags="close1" d="M1024 740.096l-103.424 102.4-408.576-408.576-408.576 408.576-103.424-102.4 408.576-409.6-408.576-408.576 103.424-103.424 408.576 409.6 408.576-409.6 103.424 103.424-408.576 408.576z" />
</font>
</defs>
</svg>
